<?xml version="1.0" standalone="no"?>
<!DOCTYPE svg PUBLIC "-//W3C//DTD SVG 1.1//EN" "http://www.w3.org/Graphics/SVG/1.1/DTD/svg11.dtd" >
<svg xmlns="http://www.w3.org/2000/svg" xmlns:xlink="http://www.w3.org/1999/xlink" version="1.1">
<metadata>
Created by FontForge 20170731 at Fri May  5 14:18:36 2017
 By Aleksey,,,
Copyright 2009 The Cairo Project Authors (gaber@gaberism.net)
</metadata>
<defs>
<font id="Cairo-Regular" horiz-adv-x="560" >
  <font-face 
    font-family="Cairo"
    font-weight="400"
    font-stretch="normal"
    units-per-em="1000"
    panose-1="0 0 5 0 0 0 0 0 0 0"
    ascent="800"
    descent="-200"
    x-height="500"
    cap-height="692"
    bbox="-224 -466 1609 1185"
    underline-thickness="50"
    underline-position="-150"
    unicode-range="U+000D-FEFC"
  />
<missing-glyph horiz-adv-x="235" 
 />
    <glyph glyph-name="uniFDF2" unicode="&#x627;&#xfedf;&#xfee0;&#xfeea;" horiz-adv-x="1395" arabic-form="isolated" 
d="M754 867l-52 -23v189l52 23v-189zM634 674q-13 15 -13 47q0 31 2 49l36 8v-50q0 -15 6.5 -24t19.5 -7q13 1 20 11.5t7 26.5v38l34 7v-43q0 -10 9 -17t20 -4l21 4v86l34 7q5 -29 5 -59v-64l-57 -11q-4 -1 -13 -1q-22 0 -32 17q-10 -36 -59 -36q-27 0 -40 15zM977 718h77
v-718h-778q-89 0 -140 25t-73.5 79.5t-22.5 148.5q0 93 21.5 149t71 82t133.5 26q37 0 113.5 -3.5t115.5 -7.5v-430h209v529h77v-529h196v649zM1305 718v-718h-77v718h77zM133.5 146q16.5 -40 53.5 -58.5t102 -18.5h129v365q-88 6 -136 6q-91 0 -128 -43t-37 -142
q0 -69 16.5 -109z" />
    <glyph glyph-name="uniFEF5" unicode="&#xfedf;&#xfe82;" horiz-adv-x="593" arabic-form="isolated" 
d="M40 0zM513 718v-718h-473v69h128v514h77v-514h192v649h76zM190 674q-21 9 -37.5 15.5t-23.5 6.5q-17 0 -49 -29l-11 -9l-13 45q17 19 37.5 32.5t38.5 13.5q11 0 26 -5t42 -17q49 -21 57 -21q7 0 21 8.5t26 19.5l10 9l14 -45q-18 -22 -36 -33.5t-33 -11.5q-20 0 -69 21z
" />
    <glyph glyph-name="uniFEF6" unicode="&#xfee0;&#xfe82;" horiz-adv-x="602" arabic-form="final" 
d="M40 0zM602 69v-69h-562v69h128v514h77v-514h192v649h76v-649h89zM190 674q-21 9 -37.5 15.5t-23.5 6.5q-17 0 -49 -29l-11 -9l-13 45q17 19 37.5 32.5t38.5 13.5q11 0 26 -5t42 -17q49 -21 57 -21q7 0 21 8.5t26 19.5l10 9l14 -45q-18 -22 -36 -33.5t-33 -11.5
q-20 0 -69 21z" />
    <glyph glyph-name="uniFEF7" unicode="&#xfedf;&#xfe84;" horiz-adv-x="593" arabic-form="isolated" 
d="M40 0zM513 718v-718h-473v69h128v514h77v-514h192v649h76zM295 669l-204 -40l-9 32l48 13q-34 28 -34 71q0 37 26 63.5t67 26.5q23 0 43 -8t30 -16l-10 -38q-6 5 -18.5 10t-27.5 5q-26 0 -42.5 -17t-16.5 -40q0 -29 23 -46l114 30z" />
    <glyph glyph-name="uniFEF8" unicode="&#xfee0;&#xfe84;" horiz-adv-x="602" arabic-form="final" 
d="M40 0zM602 69v-69h-562v69h128v514h77v-514h192v649h76v-649h89zM295 669l-204 -40l-9 32l48 13q-34 28 -34 71q0 37 26 63.5t67 26.5q23 0 43 -8t30 -16l-10 -38q-6 5 -18.5 10t-27.5 5q-26 0 -42.5 -17t-16.5 -40q0 -29 23 -46l114 30z" />
    <glyph glyph-name="uniFEF9" unicode="&#xfedf;&#xfe88;" horiz-adv-x="593" arabic-form="isolated" 
d="M40 0zM513 718v-718h-473v69h128v514h77v-514h192v649h76zM308 -246l-204 -40l-9 32l48 13q-34 28 -34 71q0 37 26 63.5t67 26.5q23 0 43 -8t30 -16l-10 -38q-6 5 -18.5 10t-27.5 5q-26 0 -42.5 -17t-16.5 -40q0 -29 23 -46l114 30z" />
    <glyph glyph-name="uniFEFA" unicode="&#xfee0;&#xfe88;" horiz-adv-x="602" arabic-form="final" 
d="M40 0zM602 69v-69h-562v69h128v514h77v-514h192v649h76v-649h89zM308 -246l-204 -40l-9 32l48 13q-34 28 -34 71q0 37 26 63.5t67 26.5q23 0 43 -8t30 -16l-10 -38q-6 5 -18.5 10t-27.5 5q-26 0 -42.5 -17t-16.5 -40q0 -29 23 -46l114 30z" />
    <glyph glyph-name="uniFEFB" unicode="&#xfedf;&#xfe8e;" horiz-adv-x="593" arabic-form="isolated" 
d="M513 718v-718h-473v69h128v514h77v-514h192v649h76z" />
    <glyph glyph-name="uniFEFC" unicode="&#xfee0;&#xfe8e;" horiz-adv-x="602" arabic-form="final" 
d="M602 69v-69h-562v69h128v514h77v-514h192v649h76v-649h89z" />
    <glyph glyph-name="uni06440671" unicode="&#xfedf;&#xfb51;" horiz-adv-x="593" 
d="M40 0zM513 718v-718h-473v69h128v514h77v-514h192v649h76zM71 687h45q0 26 14.5 50.5t40.5 40.5t59 16q84 0 84 -107v-41h-243v41zM277 687q0 40 -15 55.5t-40 15.5q-32 0 -55.5 -19t-23.5 -52h134z" />
    <glyph glyph-name="uni06440671.fina" unicode="&#xfee0;&#xfb51;" horiz-adv-x="602" 
d="M40 0zM602 69v-69h-562v69h128v514h77v-514h192v649h76v-649h89zM71 687h45q0 26 14.5 50.5t40.5 40.5t59 16q84 0 84 -107v-41h-243v41zM277 687q0 40 -15 55.5t-40 15.5q-32 0 -55.5 -19t-23.5 -52h134z" />
    <glyph glyph-name="uni066E.init" unicode="&#x66e;" horiz-adv-x="306" 
d="M226 500v-500h-226v69h149v431h77z" />
    <glyph glyph-name="uni066E.medi" unicode="&#x66e;" horiz-adv-x="375" 
d="M375 69v-69h-375v69h149v431h77v-431h149z" />
    <glyph glyph-name="uni066E.fina" unicode="&#x66e;" horiz-adv-x="831" 
d="M831 69v-69h-518q-96 0 -152 16t-81.5 51t-25.5 96q0 76 31 227l60 -3l-10 -80q-1 -11 -6.5 -55.5t-5.5 -70.5q0 -43 17.5 -67t58 -34.5t113.5 -10.5h296v431h77v-431h146z" />
    <glyph glyph-name="uni066F.init" unicode="&#x66f;" horiz-adv-x="578" 
d="M0 0zM518 489v-489h-518v69h142q-27 53 -27 169q0 103 21.5 159t72 79t143.5 23q76 0 138 -7zM228 69h213v359q-68 5 -96 5q-63 0 -96 -19t-45.5 -60t-12.5 -114q0 -127 37 -171z" />
    <glyph glyph-name="uni066F.medi" unicode="&#x66f;" horiz-adv-x="606" 
d="M0 0zM606 69v-69h-606v69h142q-27 53 -27 169q0 103 21.5 159t72 79t143.5 23q76 0 138 -7l28 -3v-420h88zM228 69h213v359q-68 5 -96 5q-63 0 -96 -19t-45.5 -60t-12.5 -114q0 -127 37 -171z" />
    <glyph glyph-name="uni066F.fina" unicode="&#x66f;" horiz-adv-x="900" 
d="M900 0h-113v-37q0 -96 -62 -154t-171 -58h-281q-109 0 -171 58t-62 155q0 73 36 283l73 -12q-17 -109 -24.5 -164t-7.5 -90q0 -75 39.5 -118t119.5 -43h274q81 0 120.5 43t39.5 118v19h-145q-69 0 -107.5 20t-56 70t-17.5 143q0 96 20 153.5t68 85.5t135 28q30 0 76 -2.5
t76 -5.5l28 -3v-420h113v-69zM473.5 134q12.5 -36 40.5 -50.5t77 -14.5h119v358q-69 6 -94 6q-60 0 -93.5 -20.5t-47.5 -63t-14 -112.5q0 -67 12.5 -103z" />
    <glyph glyph-name="uni06A1.init" unicode="&#x6a1;" horiz-adv-x="578" 
d="M518 489v-489h-518v69h142q-27 53 -27 169q0 103 21.5 159t72 79t143.5 23q76 0 138 -7zM228 69h213v359q-68 5 -96 5q-63 0 -96 -19t-45.5 -60t-12.5 -114q0 -127 37 -171z" />
    <glyph glyph-name="uni06A1.medi" unicode="&#x6a1;" horiz-adv-x="606" 
d="M606 69v-69h-606v69h142q-27 53 -27 169q0 103 21.5 159t72 79t143.5 23q76 0 138 -7l28 -3v-420h88zM228 69h213v359q-68 5 -96 5q-63 0 -96 -19t-45.5 -60t-12.5 -114q0 -127 37 -171z" />
    <glyph glyph-name="uni06A1.fina" unicode="&#x6a1;" horiz-adv-x="988" 
d="M988 69v-69h-689q-96 0 -152 16t-81.5 51t-25.5 96q0 41 9.5 105t22.5 122l60 -3q-1 -7 -7 -50q-16 -117 -16 -156q0 -43 17.5 -67t58 -34.5t113.5 -10.5h226q-27 53 -27 169q0 103 21.5 159t72 79t143.5 23q76 0 138 -7l28 -3v-420h88zM610 69h213v359q-68 5 -96 5
q-63 0 -96 -19t-45.5 -60t-12.5 -114q0 -127 37 -171z" />
    <glyph glyph-name="uni06BA.init" unicode="&#x6ba;" horiz-adv-x="306" 
d="M0 0zM226 500v-500h-226v69h149v431h77z" />
    <glyph glyph-name="uni06BA.medi" unicode="&#x6ba;" horiz-adv-x="375" 
d="M0 0zM375 69v-69h-375v69h149v431h77v-431h149z" />
    <glyph glyph-name="uni06C2.init" unicode="&#x6c2;" horiz-adv-x="306" 
d="M0 0zM226 500v-500h-226v69h149v431h77zM124 -60h62l-46 -230h-83zM290 638l-204 -40l-9 32l48 13q-34 28 -34 71q0 37 26 63.5t67 26.5q23 0 43 -8t30 -16l-10 -38q-6 5 -18.5 10t-27.5 5q-26 0 -42.5 -17t-16.5 -40q0 -29 23 -46l114 30z" />
    <glyph glyph-name="uni06C2.medi" unicode="&#x6c2;" horiz-adv-x="543" 
d="M0 0zM543 0h-114v-310l-28 -3q-2 0 -51 -3q-88 0 -136.5 26t-72 93.5t-26.5 196.5h-115v69h190v-42q0 -116 14 -174.5t48 -80t100 -21.5v318h191v-69zM375 347l-204 -40l-9 32l48 13q-34 28 -34 71q0 37 26 63.5t67 26.5q23 0 43 -8t30 -16l-10 -38q-6 5 -18.5 10
t-27.5 5q-26 0 -42.5 -17t-16.5 -40q0 -29 23 -46l114 30z" />
    <glyph glyph-name="uni06C2.fina" unicode="&#x6c2;" horiz-adv-x="609" 
d="M40 0zM609 69v-69h-333q-89 0 -140 25t-73.5 79.5t-22.5 148.5q0 93 21.5 149t71 82t133.5 26q37 0 113.5 -3.5t115.5 -7.5v-430h114zM133.5 146q16.5 -40 53.5 -58.5t102 -18.5h129v365q-88 6 -136 6q-91 0 -128 -43t-37 -142q0 -69 16.5 -109zM398 638l-204 -40l-9 32
l48 13q-34 28 -34 71q0 37 26 63.5t67 26.5q23 0 43 -8t30 -16l-10 -38q-6 5 -18.5 10t-27.5 5q-26 0 -42.5 -17t-16.5 -40q0 -29 23 -46l114 30z" />
    <glyph glyph-name="uni06C3.fina" unicode="&#x6c3;" horiz-adv-x="609" 
d="M40 0zM609 69v-69h-191v436q-38 2 -78 3.5t-67 1.5q-60 0 -94 -18.5t-48 -58.5t-14 -109v-255h-77v257q0 91 22 146t71 81t133 26q42 0 108 -2.5t93 -5.5l28 -3v-430h114zM195 707h76v-84h-76v84zM320 707h76v-84h-76v84z" />
    <glyph glyph-name="uniFB51" unicode="&#x671;" horiz-adv-x="261" arabic-form="final" 
d="M7 0zM261 69v-69h-171v632h77v-563h94zM7 727h45q0 26 14.5 50.5t40.5 40.5t59 16q84 0 84 -107v-41h-243v41zM213 727q0 40 -15 55.5t-40 15.5q-32 0 -55.5 -19t-23.5 -52h134z" />
    <glyph glyph-name="uniFB57" unicode="&#x67e;" horiz-adv-x="831" arabic-form="final" 
d="M54 0zM831 69v-69h-518q-96 0 -152 16t-81.5 51t-25.5 96q0 76 31 227l60 -3l-10 -80q-1 -11 -6.5 -55.5t-5.5 -70.5q0 -43 17.5 -67t58 -34.5t113.5 -10.5h296v431h77v-431h146zM288 -80h76v-84h-76v84zM413 -80h76v-84h-76v84zM351 -205h75v-81h-75v81z" />
    <glyph glyph-name="uniFB58" unicode="&#x67e;" horiz-adv-x="306" arabic-form="initial" 
d="M0 0zM226 500v-500h-226v69h149v431h77zM86 -80h76v-84h-76v84zM211 -80h76v-84h-76v84zM149 -205h75v-81h-75v81z" />
    <glyph glyph-name="uniFB59" unicode="&#x67e;" horiz-adv-x="375" arabic-form="medial" 
d="M0 0zM375 69v-69h-375v69h149v431h77v-431h149zM86 -80h76v-84h-76v84zM211 -80h76v-84h-76v84zM149 -205h75v-81h-75v81z" />
    <glyph glyph-name="uniFB67" unicode="&#x679;" horiz-adv-x="831" arabic-form="final" 
d="M54 0zM831 69v-69h-518q-96 0 -152 16t-81.5 51t-25.5 96q0 76 31 227l60 -3l-10 -80q-1 -11 -6.5 -55.5t-5.5 -70.5q0 -43 17.5 -67t58 -34.5t113.5 -10.5h296v431h77v-431h146zM471.5 644q21.5 -20 21.5 -63v-81h-208v43h15v186h41v-122q15 28 32.5 42.5t45.5 14.5
q31 0 52.5 -20zM361.5 597q-20.5 -23 -20.5 -49v-5h111v38q0 18 -9.5 28.5t-29.5 10.5q-31 0 -51.5 -23z" />
    <glyph glyph-name="uniFB68" unicode="&#x679;" horiz-adv-x="306" arabic-form="initial" 
d="M0 0zM226 500v-500h-226v69h149v431h77zM269.5 737q21.5 -20 21.5 -63v-81h-208v43h15v186h41v-122q15 28 32.5 42.5t45.5 14.5q31 0 52.5 -20zM159.5 690q-20.5 -23 -20.5 -49v-5h111v38q0 18 -9.5 28.5t-29.5 10.5q-31 0 -51.5 -23z" />
    <glyph glyph-name="uniFB69" unicode="&#x679;" horiz-adv-x="375" arabic-form="medial" 
d="M0 0zM375 69v-69h-375v69h149v431h77v-431h149zM269.5 737q21.5 -20 21.5 -63v-81h-208v43h15v186h41v-122q15 28 32.5 42.5t45.5 14.5q31 0 52.5 -20zM159.5 690q-20.5 -23 -20.5 -49v-5h111v38q0 18 -9.5 28.5t-29.5 10.5q-31 0 -51.5 -23z" />
    <glyph glyph-name="uniFB6B" unicode="&#x6a4;" horiz-adv-x="988" arabic-form="final" 
d="M40 0zM988 69v-69h-689q-96 0 -152 16t-81.5 51t-25.5 96q0 41 9.5 105t22.5 122l60 -3q-1 -7 -7 -50q-16 -117 -16 -156q0 -43 17.5 -67t58 -34.5t113.5 -10.5h226q-27 53 -27 169q0 103 21.5 159t72 79t143.5 23q76 0 138 -7l28 -3v-420h88zM610 69h213v359
q-68 5 -96 5q-63 0 -96 -19t-45.5 -60t-12.5 -114q0 -127 37 -171zM695 799h75v-81h-75v81zM632 677h76v-84h-76v84zM757 677h76v-84h-76v84z" />
    <glyph glyph-name="uniFB6C" unicode="&#x6a4;" horiz-adv-x="578" arabic-form="initial" 
d="M0 0zM518 489v-489h-518v69h142q-27 53 -27 169q0 103 21.5 159t72 79t143.5 23q76 0 138 -7zM228 69h213v359q-68 5 -96 5q-63 0 -96 -19t-45.5 -60t-12.5 -114q0 -127 37 -171zM298 799h75v-81h-75v81zM235 677h76v-84h-76v84zM360 677h76v-84h-76v84z" />
    <glyph glyph-name="uniFB6D" unicode="&#x6a4;" horiz-adv-x="606" arabic-form="medial" 
d="M0 0zM606 69v-69h-606v69h142q-27 53 -27 169q0 103 21.5 159t72 79t143.5 23q76 0 138 -7l28 -3v-420h88zM228 69h213v359q-68 5 -96 5q-63 0 -96 -19t-45.5 -60t-12.5 -114q0 -127 37 -171zM277 799h75v-81h-75v81zM214 677h76v-84h-76v84zM339 677h76v-84h-76v84z" />
    <glyph glyph-name="uniFB7B" unicode="&#x686;" horiz-adv-x="607" arabic-form="final" 
d="M98.5 -258q-58.5 58 -58.5 167q0 200 205 200q51 0 98 -12.5t73 -27.5v271q0 50 -26 75.5t-78 25.5q-45 0 -178 -16l-28 -3l-3 57q151 31 226 31q164 0 164 -171v-270h114v-69h-191q-28 15 -72 27.5t-88 12.5q-67 0 -102 -32t-35 -103q0 -74 41 -113.5t126 -39.5l11 -68
h-27q-113 0 -171.5 58zM280 -80h82v-95h-82v95zM432 -80h82v-95h-82v95zM359 -210h75v-87h-75v87z" />
    <glyph glyph-name="uniFB7C" unicode="&#x686;" horiz-adv-x="538" arabic-form="initial" 
d="M0 0zM478 339v-339h-478v69h401v271q0 50 -26 75.5t-78 25.5q-45 0 -178 -16l-28 -3l-3 57q151 31 226 31q164 0 164 -171zM178 -80h76v-84h-76v84zM303 -80h76v-84h-76v84zM241 -205h75v-81h-75v81z" />
    <glyph glyph-name="uniFB7D" unicode="&#x686;" horiz-adv-x="592" arabic-form="medial" 
d="M0 0zM592 69v-69h-592v69h401v271q0 50 -26 75.5t-78 25.5q-45 0 -178 -16l-28 -3l-3 57q151 31 226 31q164 0 164 -171v-270h114zM195 -80h76v-84h-76v84zM320 -80h76v-84h-76v84zM258 -205h75v-81h-75v81z" />
    <glyph glyph-name="uniFB89" unicode="&#x688;" horiz-adv-x="536" arabic-form="final" 
d="M28 0zM536 69v-69h-496v69h325v116q0 148 -57.5 207.5t-134.5 59.5h-81l-5 57q10 4 40.5 8t58.5 4q109 0 182.5 -78.5t73.5 -255.5v-118h94zM214.5 764q21.5 -20 21.5 -63v-81h-208v43h15v186h41v-122q15 28 32.5 42.5t45.5 14.5q31 0 52.5 -20zM104.5 717
q-20.5 -23 -20.5 -49v-5h111v38q0 18 -9.5 28.5t-29.5 10.5q-31 0 -51.5 -23z" />
    <glyph glyph-name="uniFB8B" unicode="&#x698;" horiz-adv-x="404" arabic-form="final" 
d="M40 0zM404 0h-125v-11q0 -238 -165 -238q-16 0 -29.5 1t-23.5 2l-21 2v68q50 -4 63 -4q50 0 74.5 39.5t24.5 110.5v529h77v-430h125v-69zM201 799h75v-81h-75v81zM138 677h76v-84h-76v84zM263 677h76v-84h-76v84z" />
    <glyph glyph-name="uniFB8D" unicode="&#x691;" horiz-adv-x="404" arabic-form="final" 
d="M40 0zM404 0h-125v-11q0 -238 -165 -238q-16 0 -29.5 1t-23.5 2l-21 2v68q50 -4 63 -4q50 0 74.5 39.5t24.5 110.5v529h77v-430h125v-69zM321.5 737q21.5 -20 21.5 -63v-81h-208v43h15v186h41v-122q15 28 32.5 42.5t45.5 14.5q31 0 52.5 -20zM211.5 690
q-20.5 -23 -20.5 -49v-5h111v38q0 18 -9.5 28.5t-29.5 10.5q-31 0 -51.5 -23z" />
    <glyph glyph-name="uniFB8F" unicode="&#x6a9;" horiz-adv-x="851" arabic-form="final" 
d="M851 69v-69h-552q-96 0 -152 16t-81.5 51t-25.5 96q0 68 26 198l62 -3q-4 -28 -5 -42q-14 -94 -14 -135q0 -43 17.5 -67t58 -34.5t113.5 -10.5h363v145q0 60 -22.5 104t-74.5 45h-271l-51 69l52 102q18 36 54.5 87.5t73.5 96.5l55 -31q-46 -69 -69 -106.5t-42 -74.5
l-38 -74h242q87 0 127.5 -61t40.5 -158v-144h113z" />
    <glyph glyph-name="uniFB90" unicode="&#x6a9;" horiz-adv-x="586" arabic-form="initial" 
d="M0 0zM485.5 371q40.5 -61 40.5 -158v-213h-526v69h449v145q0 60 -22.5 104t-74.5 45h-271l-51 69l52 102q18 36 54.5 87.5t73.5 96.5l55 -31q-46 -69 -69 -106.5t-42 -74.5l-38 -74h242q87 0 127.5 -61z" />
    <glyph glyph-name="uniFB91" unicode="&#x6a9;" horiz-adv-x="669" arabic-form="medial" 
d="M0 0zM669 69v-69h-669v69h449v145q0 60 -22.5 104t-74.5 45h-271l-51 69l52 102q18 36 54.5 87.5t73.5 96.5l55 -31q-46 -69 -69 -106.5t-42 -74.5l-38 -74h242q87 0 127.5 -61t40.5 -158v-144h143z" />
    <glyph glyph-name="uniFB93" unicode="&#x6af;" horiz-adv-x="851" arabic-form="final" 
d="M40 0zM851 69v-69h-552q-96 0 -152 16t-81.5 51t-25.5 96q0 68 26 198l62 -3q-4 -28 -5 -42q-14 -94 -14 -135q0 -43 17.5 -67t58 -34.5t113.5 -10.5h363v145q0 60 -22.5 104t-74.5 45h-271l-51 69l52 102q18 36 54.5 87.5t73.5 96.5l55 -31q-46 -69 -69 -106.5
t-42 -74.5l-38 -74h242q87 0 127.5 -61t40.5 -158v-144h113zM186 512l31 61q17 32 54.5 86t73.5 98l45 -25q-37 -44 -80.5 -106t-58.5 -93l-32 -65z" />
    <glyph glyph-name="uniFB94" unicode="&#x6af;" horiz-adv-x="586" arabic-form="initial" 
d="M0 0zM485.5 371q40.5 -61 40.5 -158v-213h-526v69h449v145q0 60 -22.5 104t-74.5 45h-271l-51 69l52 102q18 36 54.5 87.5t73.5 96.5l55 -31q-46 -69 -69 -106.5t-42 -74.5l-38 -74h242q87 0 127.5 -61zM-28 512l31 61q17 32 54.5 86t73.5 98l45 -25q-37 -44 -80.5 -106
t-58.5 -93l-32 -65z" />
    <glyph glyph-name="uniFB95" unicode="&#x6af;" horiz-adv-x="669" arabic-form="medial" 
d="M0 0zM669 69v-69h-669v69h449v145q0 60 -22.5 104t-74.5 45h-271l-51 69l52 102q18 36 54.5 87.5t73.5 96.5l55 -31q-46 -69 -69 -106.5t-42 -74.5l-38 -74h242q87 0 127.5 -61t40.5 -158v-144h143zM-28 512l31 61q17 32 54.5 86t73.5 98l45 -25q-37 -44 -80.5 -106
t-58.5 -93l-32 -65z" />
    <glyph glyph-name="uniFB9F" unicode="&#x6ba;" horiz-adv-x="669" arabic-form="final" 
d="M669 0h-114v-40q0 -67 -34.5 -114t-92 -70.5t-125.5 -23.5q-73 0 -133 27t-95 75t-35 110q0 38 12 128t28 181l74 -4q-15 -98 -26 -184.5t-11 -115.5q0 -43 24.5 -77t66.5 -52.5t93 -18.5q74 0 125.5 38.5t51.5 109.5v531h77v-431h114v-69z" />
    <glyph glyph-name="uniFBA7" unicode="&#x6c1;" horiz-adv-x="609" arabic-form="final" 
d="M609 69v-69h-191v436q-38 2 -78 3.5t-67 1.5q-60 0 -94 -18.5t-48 -58.5t-14 -109v-255h-77v257q0 91 22 146t71 81t133 26q42 0 108 -2.5t93 -5.5l28 -3v-430h114z" />
    <glyph glyph-name="uniFBA8" unicode="&#x6c1;" horiz-adv-x="306" arabic-form="initial" 
d="M0 0zM226 500v-500h-226v69h149v431h77zM124 -60h62l-46 -230h-83z" />
    <glyph glyph-name="uniFBA9" unicode="&#x6c1;" horiz-adv-x="543" arabic-form="medial" 
d="M543 0h-114v-310l-28 -3q-2 0 -51 -3q-88 0 -136.5 26t-72 93.5t-26.5 196.5h-115v69h190v-42q0 -116 14 -174.5t48 -80t100 -21.5v318h191v-69z" />
    <glyph glyph-name="uniFBAB" unicode="&#x6be;" horiz-adv-x="779" arabic-form="final" 
d="M779 69v-69h-739v69h55v80q0 49 24.5 90.5t66 66t90.5 24.5q48 0 89.5 -23.5t66 -65t24.5 -92.5v-80h147v138q0 148 -74.5 207.5t-188.5 59.5q-44 0 -93.5 -6.5t-118.5 -18.5l-5 59q130 35 231 35q141 0 233.5 -78t92.5 -256v-140h99zM202 231q-30 -30 -30 -73v-89h207
v89q0 43 -29.5 73t-73.5 30t-74 -30z" />
    <glyph glyph-name="uniFBAC" unicode="&#x6be;" horiz-adv-x="760" arabic-form="initial" 
d="M0 0zM607.5 465q92.5 -78 92.5 -256v-209h-700v69h115v80q0 49 24.5 90.5t66 66t90.5 24.5q48 0 89.5 -23.5t66 -65t24.5 -92.5v-80h147v138q0 148 -74.5 207.5t-188.5 59.5q-44 0 -93.5 -6.5t-118.5 -18.5l-5 59q130 35 231 35q141 0 233.5 -78zM222 231
q-30 -30 -30 -73v-89h207v89q0 43 -29.5 73t-73.5 30t-74 -30z" />
    <glyph glyph-name="uniFBAD" unicode="&#x6be;" horiz-adv-x="799" arabic-form="medial" 
d="M0 0zM799 69v-69h-799v69h115v80q0 49 24.5 90.5t66 66t90.5 24.5q48 0 89.5 -23.5t66 -65t24.5 -92.5v-80h147v138q0 148 -74.5 207.5t-188.5 59.5q-44 0 -93.5 -6.5t-118.5 -18.5l-5 59q130 35 231 35q141 0 233.5 -78t92.5 -256v-140h99zM222 231q-30 -30 -30 -73v-89
h207v89q0 43 -29.5 73t-73.5 30t-74 -30z" />
    <glyph glyph-name="uniFBAF" unicode="&#x6d2;" horiz-adv-x="710" arabic-form="final" 
d="M123 0q-6 -22 -6 -50q0 -66 46.5 -96t148.5 -30h310v-69h-321q-139 0 -200 45.5t-61 148.5q0 37 7 69.5t15 50.5h648v-69h-587z" />
    <glyph glyph-name="uniFBB1" unicode="&#x6d3;" horiz-adv-x="710" arabic-form="final" 
d="M40 0zM123 0q-6 -22 -6 -50q0 -66 46.5 -96t148.5 -30h310v-69h-321q-139 0 -200 45.5t-61 148.5q0 37 7 69.5t15 50.5h648v-69h-587zM289 225l-204 -40l-9 32l48 13q-34 28 -34 71q0 37 26 63.5t67 26.5q23 0 43 -8t30 -16l-10 -38q-6 5 -18.5 10t-27.5 5
q-26 0 -42.5 -17t-16.5 -40q0 -29 23 -46l114 30z" />
    <glyph glyph-name="uniFBE8" unicode="&#x649;" horiz-adv-x="306" arabic-form="initial" 
d="M0 0zM226 500v-500h-226v69h149v431h77z" />
    <glyph glyph-name="uniFBE9" unicode="&#x649;" horiz-adv-x="375" arabic-form="medial" 
d="M0 0zM375 69v-69h-375v69h149v431h77v-431h149z" />
    <glyph glyph-name="uniFBFD" unicode="&#x6cc;" horiz-adv-x="914" arabic-form="final" 
d="M40 0zM914 0h-127v-13q0 -107 -57 -171t-164 -64h-263q-73 0 -133 27t-95 75.5t-35 110.5q0 61 26 221l73 -12q-22 -147 -22 -192q0 -47 24.5 -84t66 -57t90.5 -20l264 -1q71 0 109.5 45.5t38.5 115.5q0 13 -1 19h-24q-78 0 -123 29l32 57q18 -12 38.5 -14.5t59.5 -2.5
h222v-69z" />
    <glyph glyph-name="uniFBFE" unicode="&#x6cc;" horiz-adv-x="306" arabic-form="initial" 
d="M0 0zM226 500v-500h-226v69h149v431h77zM86 -80h76v-84h-76v84zM211 -80h76v-84h-76v84z" />
    <glyph glyph-name="uniFBFF" unicode="&#x6cc;" horiz-adv-x="375" arabic-form="medial" 
d="M0 0zM375 69v-69h-375v69h149v431h77v-431h149zM86 -80h76v-84h-76v84zM211 -80h76v-84h-76v84z" />
    <glyph glyph-name="uniFC64" unicode="&#xfc64;" horiz-adv-x="730" arabic-form="final" 
d="M40 0zM730 69v-69h-203v431q-141 -4 -248 -21v-421q0 -238 -165 -238q-16 0 -29.5 1t-23.5 2l-21 2v68q50 -4 63 -4q50 0 74.5 39.5t24.5 110.5v491q49 14 149.5 26.5t252.5 12.5v-431h126zM668 638l-204 -40l-9 32l48 13q-34 28 -34 71q0 37 26 63.5t67 26.5q23 0 43 -8
t30 -16l-10 -38q-6 5 -18.5 10t-27.5 5q-26 0 -42.5 -17t-16.5 -40q0 -29 23 -46l114 30z" />
    <glyph glyph-name="uniFC65" unicode="&#xfc65;" horiz-adv-x="730" arabic-form="final" 
d="M40 0zM730 69v-69h-203v431q-141 -4 -248 -21v-421q0 -238 -165 -238q-16 0 -29.5 1t-23.5 2l-21 2v68q50 -4 63 -4q50 0 74.5 39.5t24.5 110.5v491q49 14 149.5 26.5t252.5 12.5v-431h126zM668 638l-204 -40l-9 32l48 13q-34 28 -34 71q0 37 26 63.5t67 26.5q23 0 43 -8
t30 -16l-10 -38q-6 5 -18.5 10t-27.5 5q-26 0 -42.5 -17t-16.5 -40q0 -29 23 -46l114 30zM201 677h76v-84h-76v84z" />
    <glyph glyph-name="uniFC67" unicode="&#xfc67;" horiz-adv-x="985" arabic-form="final" 
d="M40 0zM343 500h-76v84h76v-84zM985 69v-69h-203v431q-131 -4 -227 -18v-453q0 -67 -34.5 -114t-92 -70.5t-125.5 -23.5q-73 0 -133 27t-95 75t-35 110q0 38 12 128t28 181l74 -4q-15 -98 -26 -184.5t-11 -115.5q0 -43 24.5 -77t66.5 -52.5t93 -18.5q74 0 125.5 38.5
t51.5 109.5v498q157 33 381 33v-431h126zM923 638l-204 -40l-9 32l48 13q-34 28 -34 71q0 37 26 63.5t67 26.5q23 0 43 -8t30 -16l-10 -38q-6 5 -18.5 10t-27.5 5q-26 0 -42.5 -17t-16.5 -40q0 -29 23 -46l114 30z" />
    <glyph glyph-name="uniFC68" unicode="&#xfc68;" horiz-adv-x="1105" arabic-form="final" 
d="M40 0zM1105 69v-69h-203v432h-333q-150 0 -150 -113q0 -43 14.5 -65.5t49.5 -36.5t111 -31q71 -16 113 -40.5t61 -62.5t19 -96q0 -107 -57 -171t-164 -64h-263q-73 0 -133 27t-95 75.5t-35 110.5q0 61 26 221l73 -12q-22 -147 -22 -192q0 -47 24.5 -84t66 -57t90.5 -20
l264 -1q71 0 109.5 45.5t38.5 115.5q0 39 -14 64t-47 42t-93 30q-82 17 -127.5 39t-66.5 59t-21 99q0 186 223 186h415v-431h126zM1043 638l-204 -40l-9 32l48 13q-34 28 -34 71q0 37 26 63.5t67 26.5q23 0 43 -8t30 -16l-10 -38q-6 5 -18.5 10t-27.5 5q-26 0 -42.5 -17
t-16.5 -40q0 -29 23 -46l114 30z" />
    <glyph glyph-name="uniFC69" unicode="&#xfc69;" horiz-adv-x="1105" arabic-form="final" 
d="M40 0zM1105 69v-69h-203v432h-333q-150 0 -150 -113q0 -43 14.5 -65.5t49.5 -36.5t111 -31q71 -16 113 -40.5t61 -62.5t19 -96q0 -107 -57 -171t-164 -64h-263q-73 0 -133 27t-95 75.5t-35 110.5q0 61 26 221l73 -12q-22 -147 -22 -192q0 -47 24.5 -84t66 -57t90.5 -20
l264 -1q71 0 109.5 45.5t38.5 115.5q0 39 -14 64t-47 42t-93 30q-82 17 -127.5 39t-66.5 59t-21 99q0 186 223 186h415v-431h126zM1043 638l-204 -40l-9 32l48 13q-34 28 -34 71q0 37 26 63.5t67 26.5q23 0 43 -8t30 -16l-10 -38q-6 5 -18.5 10t-27.5 5q-26 0 -42.5 -17
t-16.5 -40q0 -29 23 -46l114 30zM312 -320h76v-84h-76v84zM437 -320h76v-84h-76v84z" />
    <glyph glyph-name="uniFC6A" unicode="&#xfc6a;" horiz-adv-x="730" arabic-form="final" 
d="M40 0zM730 69v-69h-203v431q-141 -4 -248 -21v-421q0 -238 -165 -238q-16 0 -29.5 1t-23.5 2l-21 2v68q50 -4 63 -4q50 0 74.5 39.5t24.5 110.5v491q49 14 149.5 26.5t252.5 12.5v-431h126zM527 -80h76v-84h-76v84z" />
    <glyph glyph-name="uniFC6B" unicode="&#xfc6b;" horiz-adv-x="730" arabic-form="final" 
d="M40 0zM730 69v-69h-203v431q-141 -4 -248 -21v-421q0 -238 -165 -238q-16 0 -29.5 1t-23.5 2l-21 2v68q50 -4 63 -4q50 0 74.5 39.5t24.5 110.5v491q49 14 149.5 26.5t252.5 12.5v-431h126zM527 -80h76v-84h-76v84zM201 677h76v-84h-76v84z" />
    <glyph glyph-name="uniFC6D" unicode="&#xfc6d;" horiz-adv-x="985" arabic-form="final" 
d="M40 0zM343 500h-76v84h76v-84zM985 69v-69h-203v431q-131 -4 -227 -18v-453q0 -67 -34.5 -114t-92 -70.5t-125.5 -23.5q-73 0 -133 27t-95 75t-35 110q0 38 12 128t28 181l74 -4q-15 -98 -26 -184.5t-11 -115.5q0 -43 24.5 -77t66.5 -52.5t93 -18.5q74 0 125.5 38.5
t51.5 109.5v498q157 33 381 33v-431h126zM782 -80h76v-84h-76v84z" />
    <glyph glyph-name="uniFC6E" unicode="&#xfc6e;" horiz-adv-x="1105" arabic-form="final" 
d="M40 0zM1105 69v-69h-203v432h-333q-150 0 -150 -113q0 -43 14.5 -65.5t49.5 -36.5t111 -31q71 -16 113 -40.5t61 -62.5t19 -96q0 -107 -57 -171t-164 -64h-263q-73 0 -133 27t-95 75.5t-35 110.5q0 61 26 221l73 -12q-22 -147 -22 -192q0 -47 24.5 -84t66 -57t90.5 -20
l264 -1q71 0 109.5 45.5t38.5 115.5q0 39 -14 64t-47 42t-93 30q-82 17 -127.5 39t-66.5 59t-21 99q0 186 223 186h415v-431h126zM902 -80h76v-84h-76v84z" />
    <glyph glyph-name="uniFC6F" unicode="&#xfc6f;" horiz-adv-x="1105" arabic-form="final" 
d="M40 0zM1105 69v-69h-203v432h-333q-150 0 -150 -113q0 -43 14.5 -65.5t49.5 -36.5t111 -31q71 -16 113 -40.5t61 -62.5t19 -96q0 -107 -57 -171t-164 -64h-263q-73 0 -133 27t-95 75.5t-35 110.5q0 61 26 221l73 -12q-22 -147 -22 -192q0 -47 24.5 -84t66 -57t90.5 -20
l264 -1q71 0 109.5 45.5t38.5 115.5q0 39 -14 64t-47 42t-93 30q-82 17 -127.5 39t-66.5 59t-21 99q0 186 223 186h415v-431h126zM902 -80h76v-84h-76v84zM312 -320h76v-84h-76v84zM437 -320h76v-84h-76v84z" />
    <glyph glyph-name="uniFC70" unicode="&#xfc70;" horiz-adv-x="730" arabic-form="final" 
d="M40 0zM730 69v-69h-203v431q-141 -4 -248 -21v-421q0 -238 -165 -238q-16 0 -29.5 1t-23.5 2l-21 2v68q50 -4 63 -4q50 0 74.5 39.5t24.5 110.5v491q49 14 149.5 26.5t252.5 12.5v-431h126zM465 677h76v-84h-76v84zM590 677h76v-84h-76v84z" />
    <glyph glyph-name="uniFC71" unicode="&#xfc71;" horiz-adv-x="730" arabic-form="final" 
d="M40 0zM730 69v-69h-203v431q-141 -4 -248 -21v-421q0 -238 -165 -238q-16 0 -29.5 1t-23.5 2l-21 2v68q50 -4 63 -4q50 0 74.5 39.5t24.5 110.5v491q49 14 149.5 26.5t252.5 12.5v-431h126zM465 677h76v-84h-76v84zM590 677h76v-84h-76v84zM201 677h76v-84h-76v84z" />
    <glyph glyph-name="uniFC73" unicode="&#xfc73;" horiz-adv-x="985" arabic-form="final" 
d="M40 0zM343 500h-76v84h76v-84zM985 69v-69h-203v431q-131 -4 -227 -18v-453q0 -67 -34.5 -114t-92 -70.5t-125.5 -23.5q-73 0 -133 27t-95 75t-35 110q0 38 12 128t28 181l74 -4q-15 -98 -26 -184.5t-11 -115.5q0 -43 24.5 -77t66.5 -52.5t93 -18.5q74 0 125.5 38.5
t51.5 109.5v498q157 33 381 33v-431h126zM720 677h76v-84h-76v84zM845 677h76v-84h-76v84z" />
    <glyph glyph-name="uniFC74" unicode="&#xfc74;" horiz-adv-x="1105" arabic-form="final" 
d="M40 0zM1105 69v-69h-203v432h-333q-150 0 -150 -113q0 -43 14.5 -65.5t49.5 -36.5t111 -31q71 -16 113 -40.5t61 -62.5t19 -96q0 -107 -57 -171t-164 -64h-263q-73 0 -133 27t-95 75.5t-35 110.5q0 61 26 221l73 -12q-22 -147 -22 -192q0 -47 24.5 -84t66 -57t90.5 -20
l264 -1q71 0 109.5 45.5t38.5 115.5q0 39 -14 64t-47 42t-93 30q-82 17 -127.5 39t-66.5 59t-21 99q0 186 223 186h415v-431h126zM840 677h76v-84h-76v84zM965 677h76v-84h-76v84z" />
    <glyph glyph-name="uniFC75" unicode="&#xfc75;" horiz-adv-x="1105" arabic-form="final" 
d="M40 0zM1105 69v-69h-203v432h-333q-150 0 -150 -113q0 -43 14.5 -65.5t49.5 -36.5t111 -31q71 -16 113 -40.5t61 -62.5t19 -96q0 -107 -57 -171t-164 -64h-263q-73 0 -133 27t-95 75.5t-35 110.5q0 61 26 221l73 -12q-22 -147 -22 -192q0 -47 24.5 -84t66 -57t90.5 -20
l264 -1q71 0 109.5 45.5t38.5 115.5q0 39 -14 64t-47 42t-93 30q-82 17 -127.5 39t-66.5 59t-21 99q0 186 223 186h415v-431h126zM840 677h76v-84h-76v84zM965 677h76v-84h-76v84zM312 -320h76v-84h-76v84zM437 -320h76v-84h-76v84z" />
    <glyph glyph-name="uniFC76" unicode="&#xfc76;" horiz-adv-x="730" arabic-form="final" 
d="M40 0zM730 69v-69h-203v431q-141 -4 -248 -21v-421q0 -238 -165 -238q-16 0 -29.5 1t-23.5 2l-21 2v68q50 -4 63 -4q50 0 74.5 39.5t24.5 110.5v491q49 14 149.5 26.5t252.5 12.5v-431h126zM527 799h75v-81h-75v81zM464 677h76v-84h-76v84zM589 677h76v-84h-76v84z" />
    <glyph glyph-name="uniFC77" unicode="&#xfc77;" horiz-adv-x="730" arabic-form="final" 
d="M40 0zM730 69v-69h-203v431q-141 -4 -248 -21v-421q0 -238 -165 -238q-16 0 -29.5 1t-23.5 2l-21 2v68q50 -4 63 -4q50 0 74.5 39.5t24.5 110.5v491q49 14 149.5 26.5t252.5 12.5v-431h126zM527 799h75v-81h-75v81zM464 677h76v-84h-76v84zM589 677h76v-84h-76v84z
M201 677h76v-84h-76v84z" />
    <glyph glyph-name="uniFC79" unicode="&#xfc79;" horiz-adv-x="985" arabic-form="final" 
d="M40 0zM343 500h-76v84h76v-84zM985 69v-69h-203v431q-131 -4 -227 -18v-453q0 -67 -34.5 -114t-92 -70.5t-125.5 -23.5q-73 0 -133 27t-95 75t-35 110q0 38 12 128t28 181l74 -4q-15 -98 -26 -184.5t-11 -115.5q0 -43 24.5 -77t66.5 -52.5t93 -18.5q74 0 125.5 38.5
t51.5 109.5v498q157 33 381 33v-431h126zM782 799h75v-81h-75v81zM719 677h76v-84h-76v84zM844 677h76v-84h-76v84z" />
    <glyph glyph-name="uniFC7A" unicode="&#xfc7a;" horiz-adv-x="1105" arabic-form="final" 
d="M40 0zM1105 69v-69h-203v432h-333q-150 0 -150 -113q0 -43 14.5 -65.5t49.5 -36.5t111 -31q71 -16 113 -40.5t61 -62.5t19 -96q0 -107 -57 -171t-164 -64h-263q-73 0 -133 27t-95 75.5t-35 110.5q0 61 26 221l73 -12q-22 -147 -22 -192q0 -47 24.5 -84t66 -57t90.5 -20
l264 -1q71 0 109.5 45.5t38.5 115.5q0 39 -14 64t-47 42t-93 30q-82 17 -127.5 39t-66.5 59t-21 99q0 186 223 186h415v-431h126zM902 799h75v-81h-75v81zM839 677h76v-84h-76v84zM964 677h76v-84h-76v84z" />
    <glyph glyph-name="uniFC7B" unicode="&#xfc7b;" horiz-adv-x="1105" arabic-form="final" 
d="M40 0zM1105 69v-69h-203v432h-333q-150 0 -150 -113q0 -43 14.5 -65.5t49.5 -36.5t111 -31q71 -16 113 -40.5t61 -62.5t19 -96q0 -107 -57 -171t-164 -64h-263q-73 0 -133 27t-95 75.5t-35 110.5q0 61 26 221l73 -12q-22 -147 -22 -192q0 -47 24.5 -84t66 -57t90.5 -20
l264 -1q71 0 109.5 45.5t38.5 115.5q0 39 -14 64t-47 42t-93 30q-82 17 -127.5 39t-66.5 59t-21 99q0 186 223 186h415v-431h126zM902 799h75v-81h-75v81zM839 677h76v-84h-76v84zM964 677h76v-84h-76v84zM312 -320h76v-84h-76v84zM437 -320h76v-84h-76v84z" />
    <glyph glyph-name="uniFC8A" unicode="&#xfc8a;" horiz-adv-x="730" arabic-form="final" 
d="M40 0zM730 69v-69h-203v431q-141 -4 -248 -21v-421q0 -238 -165 -238q-16 0 -29.5 1t-23.5 2l-21 2v68q50 -4 63 -4q50 0 74.5 39.5t24.5 110.5v491q49 14 149.5 26.5t252.5 12.5v-431h126zM527 677h76v-84h-76v84z" />
    <glyph glyph-name="uniFC8B" unicode="&#xfc8b;" horiz-adv-x="730" arabic-form="final" 
d="M40 0zM730 69v-69h-203v431q-141 -4 -248 -21v-421q0 -238 -165 -238q-16 0 -29.5 1t-23.5 2l-21 2v68q50 -4 63 -4q50 0 74.5 39.5t24.5 110.5v491q49 14 149.5 26.5t252.5 12.5v-431h126zM527 677h76v-84h-76v84zM201 677h76v-84h-76v84z" />
    <glyph glyph-name="uniFC8D" unicode="&#xfc8d;" horiz-adv-x="985" arabic-form="final" 
d="M40 0zM343 500h-76v84h76v-84zM985 69v-69h-203v431q-131 -4 -227 -18v-453q0 -67 -34.5 -114t-92 -70.5t-125.5 -23.5q-73 0 -133 27t-95 75t-35 110q0 38 12 128t28 181l74 -4q-15 -98 -26 -184.5t-11 -115.5q0 -43 24.5 -77t66.5 -52.5t93 -18.5q74 0 125.5 38.5
t51.5 109.5v498q157 33 381 33v-431h126zM782 677h76v-84h-76v84z" />
    <glyph glyph-name="uniFC8E" unicode="&#xfc8e;" horiz-adv-x="1105" arabic-form="final" 
d="M40 0zM1105 69v-69h-203v432h-333q-150 0 -150 -113q0 -43 14.5 -65.5t49.5 -36.5t111 -31q71 -16 113 -40.5t61 -62.5t19 -96q0 -107 -57 -171t-164 -64h-263q-73 0 -133 27t-95 75.5t-35 110.5q0 61 26 221l73 -12q-22 -147 -22 -192q0 -47 24.5 -84t66 -57t90.5 -20
l264 -1q71 0 109.5 45.5t38.5 115.5q0 39 -14 64t-47 42t-93 30q-82 17 -127.5 39t-66.5 59t-21 99q0 186 223 186h415v-431h126zM902 677h76v-84h-76v84z" />
    <glyph glyph-name="uniFC8F" unicode="&#xfc8f;" horiz-adv-x="1105" arabic-form="final" 
d="M40 0zM1105 69v-69h-203v432h-333q-150 0 -150 -113q0 -43 14.5 -65.5t49.5 -36.5t111 -31q71 -16 113 -40.5t61 -62.5t19 -96q0 -107 -57 -171t-164 -64h-263q-73 0 -133 27t-95 75.5t-35 110.5q0 61 26 221l73 -12q-22 -147 -22 -192q0 -47 24.5 -84t66 -57t90.5 -20
l264 -1q71 0 109.5 45.5t38.5 115.5q0 39 -14 64t-47 42t-93 30q-82 17 -127.5 39t-66.5 59t-21 99q0 186 223 186h415v-431h126zM902 677h76v-84h-76v84zM312 -320h76v-84h-76v84zM437 -320h76v-84h-76v84z" />
    <glyph glyph-name="uniFC91" unicode="&#xfc91;" horiz-adv-x="730" arabic-form="final" 
d="M40 0zM730 69v-69h-203v431q-141 -4 -248 -21v-421q0 -238 -165 -238q-16 0 -29.5 1t-23.5 2l-21 2v68q50 -4 63 -4q50 0 74.5 39.5t24.5 110.5v491q49 14 149.5 26.5t252.5 12.5v-431h126zM464 -80h76v-84h-76v84zM589 -80h76v-84h-76v84z" />
    <glyph glyph-name="uniFC92" unicode="&#xfc92;" horiz-adv-x="730" arabic-form="final" 
d="M40 0zM730 69v-69h-203v431q-141 -4 -248 -21v-421q0 -238 -165 -238q-16 0 -29.5 1t-23.5 2l-21 2v68q50 -4 63 -4q50 0 74.5 39.5t24.5 110.5v491q49 14 149.5 26.5t252.5 12.5v-431h126zM464 -80h76v-84h-76v84zM589 -80h76v-84h-76v84zM201 677h76v-84h-76v84z" />
    <glyph glyph-name="uniFC94" unicode="&#xfc94;" horiz-adv-x="985" arabic-form="final" 
d="M40 0zM343 500h-76v84h76v-84zM985 69v-69h-203v431q-131 -4 -227 -18v-453q0 -67 -34.5 -114t-92 -70.5t-125.5 -23.5q-73 0 -133 27t-95 75t-35 110q0 38 12 128t28 181l74 -4q-15 -98 -26 -184.5t-11 -115.5q0 -43 24.5 -77t66.5 -52.5t93 -18.5q74 0 125.5 38.5
t51.5 109.5v498q157 33 381 33v-431h126zM719 -80h76v-84h-76v84zM844 -80h76v-84h-76v84z" />
    <glyph glyph-name="uniFCFB" unicode="&#xfcfb;" horiz-adv-x="1564" arabic-form="isolated" 
d="M1484.5 379q9.5 -64 9.5 -101v-278h-186q-61 0 -111 42q-36 -42 -95 -42h-200v432h-333q-150 0 -150 -113q0 -43 14.5 -65.5t49.5 -36.5t111 -31q71 -16 113 -40.5t61 -62.5t19 -96q0 -107 -57 -171t-164 -64h-263q-73 0 -133 27t-95 75.5t-35 110.5q0 61 26 221l73 -12
q-22 -147 -22 -192q0 -47 24.5 -84t66 -57t90.5 -20l264 -1q71 0 109.5 45.5t38.5 115.5q0 39 -14 64t-47 42t-93 30q-82 17 -127.5 39t-66.5 59t-21 99q0 186 223 186h415v-431h99q46 0 66.5 39.5t20.5 99.5v242h77v-241q0 -61 -14 -106q15 -13 38 -23.5t46 -10.5h105v217
q0 38 -5.5 95.5t-12.5 115.5l63 3q13 -57 22.5 -121z" />
    <glyph glyph-name="uniFCFC" unicode="&#xfcfc;" horiz-adv-x="1564" arabic-form="isolated" 
d="M40 0zM1484.5 379q9.5 -64 9.5 -101v-278h-186q-61 0 -111 42q-36 -42 -95 -42h-200v432h-333q-150 0 -150 -113q0 -43 14.5 -65.5t49.5 -36.5t111 -31q71 -16 113 -40.5t61 -62.5t19 -96q0 -107 -57 -171t-164 -64h-263q-73 0 -133 27t-95 75.5t-35 110.5q0 61 26 221
l73 -12q-22 -147 -22 -192q0 -47 24.5 -84t66 -57t90.5 -20l264 -1q71 0 109.5 45.5t38.5 115.5q0 39 -14 64t-47 42t-93 30q-82 17 -127.5 39t-66.5 59t-21 99q0 186 223 186h415v-431h99q46 0 66.5 39.5t20.5 99.5v242h77v-241q0 -61 -14 -106q15 -13 38 -23.5t46 -10.5
h105v217q0 38 -5.5 95.5t-12.5 115.5l63 3q13 -57 22.5 -121zM312 -320h76v-84h-76v84zM437 -320h76v-84h-76v84z" />
    <glyph glyph-name="uniFCFD" unicode="&#xfcfd;" horiz-adv-x="1564" arabic-form="isolated" 
d="M40 0zM1484.5 379q9.5 -64 9.5 -101v-278h-186q-61 0 -111 42q-36 -42 -95 -42h-200v432h-333q-150 0 -150 -113q0 -43 14.5 -65.5t49.5 -36.5t111 -31q71 -16 113 -40.5t61 -62.5t19 -96q0 -107 -57 -171t-164 -64h-263q-73 0 -133 27t-95 75.5t-35 110.5q0 61 26 221
l73 -12q-22 -147 -22 -192q0 -47 24.5 -84t66 -57t90.5 -20l264 -1q71 0 109.5 45.5t38.5 115.5q0 39 -14 64t-47 42t-93 30q-82 17 -127.5 39t-66.5 59t-21 99q0 186 223 186h415v-431h99q46 0 66.5 39.5t20.5 99.5v242h77v-241q0 -61 -14 -106q15 -13 38 -23.5t46 -10.5
h105v217q0 38 -5.5 95.5t-12.5 115.5l63 3q13 -57 22.5 -121zM1165 799h75v-81h-75v81zM1102 677h76v-84h-76v84zM1227 677h76v-84h-76v84z" />
    <glyph glyph-name="uniFCFE" unicode="&#xfcfe;" horiz-adv-x="1564" arabic-form="isolated" 
d="M40 0zM1484.5 379q9.5 -64 9.5 -101v-278h-186q-61 0 -111 42q-36 -42 -95 -42h-200v432h-333q-150 0 -150 -113q0 -43 14.5 -65.5t49.5 -36.5t111 -31q71 -16 113 -40.5t61 -62.5t19 -96q0 -107 -57 -171t-164 -64h-263q-73 0 -133 27t-95 75.5t-35 110.5q0 61 26 221
l73 -12q-22 -147 -22 -192q0 -47 24.5 -84t66 -57t90.5 -20l264 -1q71 0 109.5 45.5t38.5 115.5q0 39 -14 64t-47 42t-93 30q-82 17 -127.5 39t-66.5 59t-21 99q0 186 223 186h415v-431h99q46 0 66.5 39.5t20.5 99.5v242h77v-241q0 -61 -14 -106q15 -13 38 -23.5t46 -10.5
h105v217q0 38 -5.5 95.5t-12.5 115.5l63 3q13 -57 22.5 -121zM1165 799h75v-81h-75v81zM1102 677h76v-84h-76v84zM1227 677h76v-84h-76v84zM312 -320h76v-84h-76v84zM437 -320h76v-84h-76v84z" />
    <glyph glyph-name="uniFD05" unicode="&#xfd05;" horiz-adv-x="1564" arabic-form="isolated" 
d="M1437.5 432.5q52.5 -77.5 52.5 -181.5v-251h-588v432h-333q-150 0 -150 -113q0 -43 14.5 -65.5t49.5 -36.5t111 -31q71 -16 113 -40.5t61 -62.5t19 -96q0 -107 -57 -171t-164 -64h-263q-73 0 -133 27t-95 75.5t-35 110.5q0 61 26 221l73 -12q-22 -147 -22 -192
q0 -47 24.5 -84t66 -57t90.5 -20l264 -1q71 0 109.5 45.5t38.5 115.5q0 39 -14 64t-47 42t-93 30q-82 17 -127.5 39t-66.5 59t-21 99q0 186 223 186h415v-160q45 56 81.5 91t85.5 57t113 22q126 0 178.5 -77.5zM1136 407q-53 -34 -86 -72.5t-71 -91.5v-174h434v171
q0 86 -41.5 143.5t-120.5 57.5q-62 0 -115 -34z" />
    <glyph glyph-name="uniFD06" unicode="&#xfd06;" horiz-adv-x="1564" arabic-form="isolated" 
d="M40 0zM1437.5 432.5q52.5 -77.5 52.5 -181.5v-251h-588v432h-333q-150 0 -150 -113q0 -43 14.5 -65.5t49.5 -36.5t111 -31q71 -16 113 -40.5t61 -62.5t19 -96q0 -107 -57 -171t-164 -64h-263q-73 0 -133 27t-95 75.5t-35 110.5q0 61 26 221l73 -12q-22 -147 -22 -192
q0 -47 24.5 -84t66 -57t90.5 -20l264 -1q71 0 109.5 45.5t38.5 115.5q0 39 -14 64t-47 42t-93 30q-82 17 -127.5 39t-66.5 59t-21 99q0 186 223 186h415v-160q45 56 81.5 91t85.5 57t113 22q126 0 178.5 -77.5zM1136 407q-53 -34 -86 -72.5t-71 -91.5v-174h434v171
q0 86 -41.5 143.5t-120.5 57.5q-62 0 -115 -34zM312 -320h76v-84h-76v84zM437 -320h76v-84h-76v84z" />
    <glyph glyph-name="uniFD07" unicode="&#xfd07;" horiz-adv-x="1564" arabic-form="isolated" 
d="M40 0zM1437.5 432.5q52.5 -77.5 52.5 -181.5v-251h-588v432h-333q-150 0 -150 -113q0 -43 14.5 -65.5t49.5 -36.5t111 -31q71 -16 113 -40.5t61 -62.5t19 -96q0 -107 -57 -171t-164 -64h-263q-73 0 -133 27t-95 75.5t-35 110.5q0 61 26 221l73 -12q-22 -147 -22 -192
q0 -47 24.5 -84t66 -57t90.5 -20l264 -1q71 0 109.5 45.5t38.5 115.5q0 39 -14 64t-47 42t-93 30q-82 17 -127.5 39t-66.5 59t-21 99q0 186 223 186h415v-160q45 56 81.5 91t85.5 57t113 22q126 0 178.5 -77.5zM1136 407q-53 -34 -86 -72.5t-71 -91.5v-174h434v171
q0 86 -41.5 143.5t-120.5 57.5q-62 0 -115 -34zM1186 677h76v-84h-76v84z" />
    <glyph glyph-name="uniFD08" unicode="&#xfd08;" horiz-adv-x="1564" arabic-form="isolated" 
d="M40 0zM1437.5 432.5q52.5 -77.5 52.5 -181.5v-251h-588v432h-333q-150 0 -150 -113q0 -43 14.5 -65.5t49.5 -36.5t111 -31q71 -16 113 -40.5t61 -62.5t19 -96q0 -107 -57 -171t-164 -64h-263q-73 0 -133 27t-95 75.5t-35 110.5q0 61 26 221l73 -12q-22 -147 -22 -192
q0 -47 24.5 -84t66 -57t90.5 -20l264 -1q71 0 109.5 45.5t38.5 115.5q0 39 -14 64t-47 42t-93 30q-82 17 -127.5 39t-66.5 59t-21 99q0 186 223 186h415v-160q45 56 81.5 91t85.5 57t113 22q126 0 178.5 -77.5zM1136 407q-53 -34 -86 -72.5t-71 -91.5v-174h434v171
q0 86 -41.5 143.5t-120.5 57.5q-62 0 -115 -34zM1186 677h76v-84h-76v84zM312 -320h76v-84h-76v84zM437 -320h76v-84h-76v84z" />
    <glyph glyph-name="uniFD0D" unicode="&#xfd0d;" horiz-adv-x="1198" arabic-form="isolated" 
d="M40 0zM1118.5 379q9.5 -64 9.5 -101v-278h-186q-61 0 -111 42q-36 -42 -95 -42h-200v431q-150 -4 -257 -21v-421q0 -238 -165 -238q-16 0 -29.5 1t-23.5 2l-21 2v68q50 -4 63 -4q50 0 74.5 39.5t24.5 110.5v491q47 14 153 26.5t258 12.5v-431h99q46 0 66.5 39.5
t20.5 99.5v242h77v-241q0 -61 -14 -106q15 -13 38 -23.5t46 -10.5h105v217q0 38 -5.5 95.5t-12.5 115.5l63 3q13 -57 22.5 -121zM799 799h75v-81h-75v81zM736 677h76v-84h-76v84zM861 677h76v-84h-76v84z" />
    <glyph glyph-name="uniFD0E" unicode="&#xfd0e;" horiz-adv-x="1198" arabic-form="isolated" 
d="M1118.5 379q9.5 -64 9.5 -101v-278h-186q-61 0 -111 42q-36 -42 -95 -42h-200v431q-150 -4 -257 -21v-421q0 -238 -165 -238q-16 0 -29.5 1t-23.5 2l-21 2v68q50 -4 63 -4q50 0 74.5 39.5t24.5 110.5v491q47 14 153 26.5t258 12.5v-431h99q46 0 66.5 39.5t20.5 99.5v242
h77v-241q0 -61 -14 -106q15 -13 38 -23.5t46 -10.5h105v217q0 38 -5.5 95.5t-12.5 115.5l63 3q13 -57 22.5 -121z" />
    <glyph glyph-name="uniFD0F" unicode="&#xfd0f;" horiz-adv-x="1198" arabic-form="isolated" 
d="M1071.5 432.5q52.5 -77.5 52.5 -181.5v-251h-588v431q-152 -4 -257 -21v-421q0 -238 -165 -238q-16 0 -29.5 1t-23.5 2l-21 2v68q50 -4 63 -4q50 0 74.5 39.5t24.5 110.5v491q47 14 153 26.5t258 12.5v-160q45 56 81.5 91t85.5 57t113 22q126 0 178.5 -77.5zM770 407
q-53 -34 -86 -72.5t-71 -91.5v-174h434v171q0 86 -41.5 143.5t-120.5 57.5q-62 0 -115 -34z" />
    <glyph glyph-name="uniFD10" unicode="&#xfd10;" horiz-adv-x="1198" arabic-form="isolated" 
d="M40 0zM1071.5 432.5q52.5 -77.5 52.5 -181.5v-251h-588v431q-152 -4 -257 -21v-421q0 -238 -165 -238q-16 0 -29.5 1t-23.5 2l-21 2v68q50 -4 63 -4q50 0 74.5 39.5t24.5 110.5v491q47 14 153 26.5t258 12.5v-160q45 56 81.5 91t85.5 57t113 22q126 0 178.5 -77.5z
M770 407q-53 -34 -86 -72.5t-71 -91.5v-174h434v171q0 86 -41.5 143.5t-120.5 57.5q-62 0 -115 -34zM800 677h76v-84h-76v84z" />
    <glyph glyph-name="uniFD17" unicode="&#xfd17;" horiz-adv-x="1608" arabic-form="final" 
d="M1608 69v-69h-300q-61 0 -111 42q-36 -42 -95 -42h-200v432h-333q-150 0 -150 -113q0 -43 14.5 -65.5t49.5 -36.5t111 -31q71 -16 113 -40.5t61 -62.5t19 -96q0 -107 -57 -171t-164 -64h-263q-73 0 -133 27t-95 75.5t-35 110.5q0 61 26 221l73 -12q-22 -147 -22 -192
q0 -47 24.5 -84t66 -57t90.5 -20l264 -1q71 0 109.5 45.5t38.5 115.5q0 39 -14 64t-47 42t-93 30q-82 17 -127.5 39t-66.5 59t-21 99q0 186 223 186h415v-431h99q46 0 66.5 39.5t20.5 99.5v242h77v-241q0 -61 -14 -106q15 -13 38 -23.5t46 -10.5h105v217q0 38 -5.5 95.5
t-12.5 115.5l63 3q13 -57 22.5 -121t9.5 -101v-209h114z" />
    <glyph glyph-name="uniFD18" unicode="&#xfd18;" horiz-adv-x="1608" arabic-form="final" 
d="M40 0zM1608 69v-69h-300q-61 0 -111 42q-36 -42 -95 -42h-200v432h-333q-150 0 -150 -113q0 -43 14.5 -65.5t49.5 -36.5t111 -31q71 -16 113 -40.5t61 -62.5t19 -96q0 -107 -57 -171t-164 -64h-263q-73 0 -133 27t-95 75.5t-35 110.5q0 61 26 221l73 -12
q-22 -147 -22 -192q0 -47 24.5 -84t66 -57t90.5 -20l264 -1q71 0 109.5 45.5t38.5 115.5q0 39 -14 64t-47 42t-93 30q-82 17 -127.5 39t-66.5 59t-21 99q0 186 223 186h415v-431h99q46 0 66.5 39.5t20.5 99.5v242h77v-241q0 -61 -14 -106q15 -13 38 -23.5t46 -10.5h105v217
q0 38 -5.5 95.5t-12.5 115.5l63 3q13 -57 22.5 -121t9.5 -101v-209h114zM312 -320h76v-84h-76v84zM437 -320h76v-84h-76v84z" />
    <glyph glyph-name="uniFD19" unicode="&#xfd19;" horiz-adv-x="1608" arabic-form="final" 
d="M40 0zM1608 69v-69h-300q-61 0 -111 42q-36 -42 -95 -42h-200v432h-333q-150 0 -150 -113q0 -43 14.5 -65.5t49.5 -36.5t111 -31q71 -16 113 -40.5t61 -62.5t19 -96q0 -107 -57 -171t-164 -64h-263q-73 0 -133 27t-95 75.5t-35 110.5q0 61 26 221l73 -12
q-22 -147 -22 -192q0 -47 24.5 -84t66 -57t90.5 -20l264 -1q71 0 109.5 45.5t38.5 115.5q0 39 -14 64t-47 42t-93 30q-82 17 -127.5 39t-66.5 59t-21 99q0 186 223 186h415v-431h99q46 0 66.5 39.5t20.5 99.5v242h77v-241q0 -61 -14 -106q15 -13 38 -23.5t46 -10.5h105v217
q0 38 -5.5 95.5t-12.5 115.5l63 3q13 -57 22.5 -121t9.5 -101v-209h114zM1165 819h75v-81h-75v81zM1102 697h76v-84h-76v84zM1227 697h76v-84h-76v84z" />
    <glyph glyph-name="uniFD1A" unicode="&#xfd1a;" horiz-adv-x="1608" arabic-form="final" 
d="M40 0zM1608 69v-69h-300q-61 0 -111 42q-36 -42 -95 -42h-200v432h-333q-150 0 -150 -113q0 -43 14.5 -65.5t49.5 -36.5t111 -31q71 -16 113 -40.5t61 -62.5t19 -96q0 -107 -57 -171t-164 -64h-263q-73 0 -133 27t-95 75.5t-35 110.5q0 61 26 221l73 -12
q-22 -147 -22 -192q0 -47 24.5 -84t66 -57t90.5 -20l264 -1q71 0 109.5 45.5t38.5 115.5q0 39 -14 64t-47 42t-93 30q-82 17 -127.5 39t-66.5 59t-21 99q0 186 223 186h415v-431h99q46 0 66.5 39.5t20.5 99.5v242h77v-241q0 -61 -14 -106q15 -13 38 -23.5t46 -10.5h105v217
q0 38 -5.5 95.5t-12.5 115.5l63 3q13 -57 22.5 -121t9.5 -101v-209h114zM1165 819h75v-81h-75v81zM1102 697h76v-84h-76v84zM1227 697h76v-84h-76v84zM312 -320h76v-84h-76v84zM437 -320h76v-84h-76v84z" />
    <glyph glyph-name="uniFD21" unicode="&#xfd21;" horiz-adv-x="1609" arabic-form="final" 
d="M1609 69v-69h-707v432h-333q-150 0 -150 -113q0 -43 14.5 -65.5t49.5 -36.5t111 -31q71 -16 113 -40.5t61 -62.5t19 -96q0 -107 -57 -171t-164 -64h-263q-73 0 -133 27t-95 75.5t-35 110.5q0 61 26 221l73 -12q-22 -147 -22 -192q0 -47 24.5 -84t66 -57t90.5 -20l264 -1
q71 0 109.5 45.5t38.5 115.5q0 39 -14 64t-47 42t-93 30q-82 17 -127.5 39t-66.5 59t-21 99q0 186 223 186h415v-160q45 56 81.5 91t85.5 57t113 22q126 0 178.5 -77.5t52.5 -181.5v-182h119zM1136 407q-53 -34 -86 -72.5t-71 -91.5v-174h434v171q0 86 -41.5 143.5
t-120.5 57.5q-62 0 -115 -34z" />
    <glyph glyph-name="uniFD22" unicode="&#xfd22;" horiz-adv-x="1609" arabic-form="final" 
d="M40 0zM1609 69v-69h-707v432h-333q-150 0 -150 -113q0 -43 14.5 -65.5t49.5 -36.5t111 -31q71 -16 113 -40.5t61 -62.5t19 -96q0 -107 -57 -171t-164 -64h-263q-73 0 -133 27t-95 75.5t-35 110.5q0 61 26 221l73 -12q-22 -147 -22 -192q0 -47 24.5 -84t66 -57t90.5 -20
l264 -1q71 0 109.5 45.5t38.5 115.5q0 39 -14 64t-47 42t-93 30q-82 17 -127.5 39t-66.5 59t-21 99q0 186 223 186h415v-160q45 56 81.5 91t85.5 57t113 22q126 0 178.5 -77.5t52.5 -181.5v-182h119zM1136 407q-53 -34 -86 -72.5t-71 -91.5v-174h434v171q0 86 -41.5 143.5
t-120.5 57.5q-62 0 -115 -34zM312 -320h76v-84h-76v84zM437 -320h76v-84h-76v84z" />
    <glyph glyph-name="uniFD23" unicode="&#xfd23;" horiz-adv-x="1609" arabic-form="final" 
d="M40 0zM1609 69v-69h-707v432h-333q-150 0 -150 -113q0 -43 14.5 -65.5t49.5 -36.5t111 -31q71 -16 113 -40.5t61 -62.5t19 -96q0 -107 -57 -171t-164 -64h-263q-73 0 -133 27t-95 75.5t-35 110.5q0 61 26 221l73 -12q-22 -147 -22 -192q0 -47 24.5 -84t66 -57t90.5 -20
l264 -1q71 0 109.5 45.5t38.5 115.5q0 39 -14 64t-47 42t-93 30q-82 17 -127.5 39t-66.5 59t-21 99q0 186 223 186h415v-160q45 56 81.5 91t85.5 57t113 22q126 0 178.5 -77.5t52.5 -181.5v-182h119zM1136 407q-53 -34 -86 -72.5t-71 -91.5v-174h434v171q0 86 -41.5 143.5
t-120.5 57.5q-62 0 -115 -34zM1186 677h76v-84h-76v84z" />
    <glyph glyph-name="uniFD24" unicode="&#xfd24;" horiz-adv-x="1609" arabic-form="final" 
d="M40 0zM1609 69v-69h-707v432h-333q-150 0 -150 -113q0 -43 14.5 -65.5t49.5 -36.5t111 -31q71 -16 113 -40.5t61 -62.5t19 -96q0 -107 -57 -171t-164 -64h-263q-73 0 -133 27t-95 75.5t-35 110.5q0 61 26 221l73 -12q-22 -147 -22 -192q0 -47 24.5 -84t66 -57t90.5 -20
l264 -1q71 0 109.5 45.5t38.5 115.5q0 39 -14 64t-47 42t-93 30q-82 17 -127.5 39t-66.5 59t-21 99q0 186 223 186h415v-160q45 56 81.5 91t85.5 57t113 22q126 0 178.5 -77.5t52.5 -181.5v-182h119zM1136 407q-53 -34 -86 -72.5t-71 -91.5v-174h434v171q0 86 -41.5 143.5
t-120.5 57.5q-62 0 -115 -34zM1186 677h76v-84h-76v84zM312 -320h76v-84h-76v84zM437 -320h76v-84h-76v84z" />
    <glyph glyph-name="uniFD29" unicode="&#xfd29;" horiz-adv-x="1230" arabic-form="final" 
d="M40 0zM1230 69v-69h-288q-61 0 -111 42q-36 -42 -95 -42h-200v431q-150 -4 -257 -21v-421q0 -238 -165 -238q-16 0 -29.5 1t-23.5 2l-21 2v68q50 -4 63 -4q50 0 74.5 39.5t24.5 110.5v491q47 14 153 26.5t258 12.5v-431h99q46 0 66.5 39.5t20.5 99.5v242h77v-241
q0 -61 -14 -106q15 -13 38 -23.5t46 -10.5h105v217q0 38 -5.5 95.5t-12.5 115.5l63 3q13 -57 22.5 -121t9.5 -101v-209h102zM787 799h75v-81h-75v81zM724 677h76v-84h-76v84zM849 677h76v-84h-76v84z" />
    <glyph glyph-name="uniFD2A" unicode="&#xfd2a;" horiz-adv-x="1230" arabic-form="final" 
d="M1230 69v-69h-288q-61 0 -111 42q-36 -42 -95 -42h-200v431q-150 -4 -257 -21v-421q0 -238 -165 -238q-16 0 -29.5 1t-23.5 2l-21 2v68q50 -4 63 -4q50 0 74.5 39.5t24.5 110.5v491q47 14 153 26.5t258 12.5v-431h99q46 0 66.5 39.5t20.5 99.5v242h77v-241
q0 -61 -14 -106q15 -13 38 -23.5t46 -10.5h105v217q0 38 -5.5 95.5t-12.5 115.5l63 3q13 -57 22.5 -121t9.5 -101v-209h102z" />
    <glyph glyph-name="uniFD2B" unicode="&#xfd2b;" horiz-adv-x="1212" arabic-form="final" 
d="M1212 69v-69h-676v431q-152 -4 -257 -21v-421q0 -238 -165 -238q-16 0 -29.5 1t-23.5 2l-21 2v68q50 -4 63 -4q50 0 74.5 39.5t24.5 110.5v491q47 14 153 26.5t258 12.5v-160q45 56 81.5 91t85.5 57t113 22q126 0 178.5 -77.5t52.5 -181.5v-182h88zM770 407
q-53 -34 -86 -72.5t-71 -91.5v-174h434v171q0 86 -41.5 143.5t-120.5 57.5q-62 0 -115 -34z" />
    <glyph glyph-name="uniFD2C" unicode="&#xfd2c;" horiz-adv-x="1212" arabic-form="final" 
d="M40 0zM1212 69v-69h-676v431q-152 -4 -257 -21v-421q0 -238 -165 -238q-16 0 -29.5 1t-23.5 2l-21 2v68q50 -4 63 -4q50 0 74.5 39.5t24.5 110.5v491q47 14 153 26.5t258 12.5v-160q45 56 81.5 91t85.5 57t113 22q126 0 178.5 -77.5t52.5 -181.5v-182h88zM770 407
q-53 -34 -86 -72.5t-71 -91.5v-174h434v171q0 86 -41.5 143.5t-120.5 57.5q-62 0 -115 -34zM800 677h76v-84h-76v84z" />
    <glyph glyph-name="uniFE82" unicode="&#x622;" horiz-adv-x="261" arabic-form="final" 
d="M0 0zM261 69v-69h-171v632h77v-563h94zM126 714q-21 9 -37.5 15.5t-23.5 6.5q-17 0 -49 -29l-11 -9l-13 45q17 19 37.5 32.5t38.5 13.5q11 0 26 -5t42 -17q49 -21 57 -21q7 0 21 8.5t26 19.5l10 9l14 -45q-18 -22 -36 -33.5t-33 -11.5q-20 0 -69 21z" />
    <glyph glyph-name="uniFE84" unicode="&#x623;" horiz-adv-x="261" arabic-form="final" 
d="M18 0zM261 69v-69h-171v632h77v-563h94zM231 709l-204 -40l-9 32l48 13q-34 28 -34 71q0 37 26 63.5t67 26.5q23 0 43 -8t30 -16l-10 -38q-6 5 -18.5 10t-27.5 5q-26 0 -42.5 -17t-16.5 -40q0 -29 23 -46l114 30z" />
    <glyph glyph-name="uniFE86" unicode="&#x624;" horiz-adv-x="567" arabic-form="final" 
d="M40 0zM567 0h-125q-6 -126 -46.5 -187t-127.5 -61q-46 0 -151 15v68q93 -14 146 -14q35 0 56.5 12.5t34.5 51.5t13 115h-147q-109 0 -144.5 69t-35.5 179q0 93 18 151.5t65 89t131 30.5q40 0 96.5 -6t93.5 -13v-431h123v-69zM143 119.5q26 -50.5 106 -50.5h118v374
q-54 7 -94 7q-61 0 -95 -22.5t-47.5 -66t-13.5 -111.5q0 -80 26 -130.5zM372 638l-204 -40l-9 32l48 13q-34 28 -34 71q0 37 26 63.5t67 26.5q23 0 43 -8t30 -16l-10 -38q-6 5 -18.5 10t-27.5 5q-26 0 -42.5 -17t-16.5 -40q0 -29 23 -46l114 30z" />
    <glyph glyph-name="uniFE88" unicode="&#x625;" horiz-adv-x="261" arabic-form="final" 
d="M32 0zM261 69v-69h-171v718h77v-649h94zM245 -223l-204 -40l-9 32l48 13q-34 28 -34 71q0 37 26 63.5t67 26.5q23 0 43 -8t30 -16l-10 -38q-6 5 -18.5 10t-27.5 5q-26 0 -42.5 -17t-16.5 -40q0 -29 23 -46l114 30z" />
    <glyph glyph-name="uniFE8A" unicode="&#x626;" horiz-adv-x="914" arabic-form="final" 
d="M40 0zM914 0h-127v-13q0 -107 -57 -171t-164 -64h-263q-73 0 -133 27t-95 75.5t-35 110.5q0 61 26 221l73 -12q-22 -147 -22 -192q0 -47 24.5 -84t66 -57t90.5 -20l264 -1q71 0 109.5 45.5t38.5 115.5q0 13 -1 19h-24q-78 0 -123 29l32 57q18 -12 38.5 -14.5t59.5 -2.5
h222v-69zM261 306l-204 -40l-9 32l48 13q-34 28 -34 71q0 37 26 63.5t67 26.5q23 0 43 -8t30 -16l-10 -38q-6 5 -18.5 10t-27.5 5q-26 0 -42.5 -17t-16.5 -40q0 -29 23 -46l114 30z" />
    <glyph glyph-name="uniFE8B" unicode="&#x626;" horiz-adv-x="306" arabic-form="initial" 
d="M0 0zM226 500v-500h-226v69h149v431h77zM290 638l-204 -40l-9 32l48 13q-34 28 -34 71q0 37 26 63.5t67 26.5q23 0 43 -8t30 -16l-10 -38q-6 5 -18.5 10t-27.5 5q-26 0 -42.5 -17t-16.5 -40q0 -29 23 -46l114 30z" />
    <glyph glyph-name="uniFE8C" unicode="&#x626;" horiz-adv-x="375" arabic-form="medial" 
d="M0 0zM375 69v-69h-375v69h149v431h77v-431h149zM290 638l-204 -40l-9 32l48 13q-34 28 -34 71q0 37 26 63.5t67 26.5q23 0 43 -8t30 -16l-10 -38q-6 5 -18.5 10t-27.5 5q-26 0 -42.5 -17t-16.5 -40q0 -29 23 -46l114 30z" />
    <glyph glyph-name="uniFE8E" unicode="&#x627;" horiz-adv-x="261" arabic-form="final" 
d="M261 69v-69h-171v718h77v-649h94z" />
    <glyph glyph-name="uniFE90" unicode="&#x628;" horiz-adv-x="831" arabic-form="final" 
d="M54 0zM831 69v-69h-518q-96 0 -152 16t-81.5 51t-25.5 96q0 76 31 227l60 -3l-10 -80q-1 -11 -6.5 -55.5t-5.5 -70.5q0 -43 17.5 -67t58 -34.5t113.5 -10.5h296v431h77v-431h146zM351 -80h76v-84h-76v84z" />
    <glyph glyph-name="uniFE91" unicode="&#x628;" horiz-adv-x="306" arabic-form="initial" 
d="M0 0zM226 500v-500h-226v69h149v431h77zM149 -80h76v-84h-76v84z" />
    <glyph glyph-name="uniFE92" unicode="&#x628;" horiz-adv-x="375" arabic-form="medial" 
d="M0 0zM375 69v-69h-375v69h149v431h77v-431h149zM149 -80h76v-84h-76v84z" />
    <glyph glyph-name="uniFE94" unicode="&#x629;" horiz-adv-x="609" arabic-form="final" 
d="M40 0zM609 69v-69h-333q-89 0 -140 25t-73.5 79.5t-22.5 148.5q0 93 21.5 149t71 82t133.5 26q37 0 113.5 -3.5t115.5 -7.5v-430h114zM133.5 146q16.5 -40 53.5 -58.5t102 -18.5h129v365q-88 6 -136 6q-91 0 -128 -43t-37 -142q0 -69 16.5 -109zM195 677h76v-84h-76v84z
M320 677h76v-84h-76v84z" />
    <glyph glyph-name="uniFE96" unicode="&#x62a;" horiz-adv-x="831" arabic-form="final" 
d="M54 0zM831 69v-69h-518q-96 0 -152 16t-81.5 51t-25.5 96q0 76 31 227l60 -3l-10 -80q-1 -11 -6.5 -55.5t-5.5 -70.5q0 -43 17.5 -67t58 -34.5t113.5 -10.5h296v431h77v-431h146zM289 584h76v-84h-76v84zM414 584h76v-84h-76v84z" />
    <glyph glyph-name="uniFE97" unicode="&#x62a;" horiz-adv-x="306" arabic-form="initial" 
d="M0 0zM226 500v-500h-226v69h149v431h77zM87 677h76v-84h-76v84zM212 677h76v-84h-76v84z" />
    <glyph glyph-name="uniFE98" unicode="&#x62a;" horiz-adv-x="375" arabic-form="medial" 
d="M0 0zM375 69v-69h-375v69h149v431h77v-431h149zM87 677h76v-84h-76v84zM212 677h76v-84h-76v84z" />
    <glyph glyph-name="uniFE9A" unicode="&#x62b;" horiz-adv-x="831" arabic-form="final" 
d="M54 0zM831 69v-69h-518q-96 0 -152 16t-81.5 51t-25.5 96q0 76 31 227l60 -3l-10 -80q-1 -11 -6.5 -55.5t-5.5 -70.5q0 -43 17.5 -67t58 -34.5t113.5 -10.5h296v431h77v-431h146zM351 706h75v-81h-75v81zM288 584h76v-84h-76v84zM413 584h76v-84h-76v84z" />
    <glyph glyph-name="uniFE9B" unicode="&#x62b;" horiz-adv-x="306" arabic-form="initial" 
d="M0 0zM226 500v-500h-226v69h149v431h77zM149 799h75v-81h-75v81zM86 677h76v-84h-76v84zM211 677h76v-84h-76v84z" />
    <glyph glyph-name="uniFE9C" unicode="&#x62b;" horiz-adv-x="375" arabic-form="medial" 
d="M0 0zM375 69v-69h-375v69h149v431h77v-431h149zM149 799h75v-81h-75v81zM86 677h76v-84h-76v84zM211 677h76v-84h-76v84z" />
    <glyph glyph-name="uniFE9E" unicode="&#x62c;" horiz-adv-x="607" arabic-form="final" 
d="M40 0zM607 69v-69h-191q-28 16 -71.5 28t-88.5 12q-67 0 -102 -32t-35 -103q0 -74 41 -113.5t126 -39.5q72 0 185 22l9 -61q-128 -29 -210 -29q-113 0 -171.5 58t-58.5 167q0 200 205 200q54 0 100 -12.5t71 -27.5v271q0 50 -26 75.5t-78 25.5q-45 0 -178 -16l-28 -3
l-3 57q151 31 226 31q164 0 164 -171v-270h114zM283 -85h76v-84h-76v84z" />
    <glyph glyph-name="uniFE9F" unicode="&#x62c;" horiz-adv-x="538" arabic-form="initial" 
d="M0 0zM478 339v-339h-478v69h401v271q0 50 -26 75.5t-78 25.5q-45 0 -178 -16l-28 -3l-3 57q151 31 226 31q164 0 164 -171zM241 -80h76v-84h-76v84z" />
    <glyph glyph-name="uniFEA0" unicode="&#x62c;" horiz-adv-x="592" arabic-form="medial" 
d="M0 0zM592 69v-69h-592v69h401v271q0 50 -26 75.5t-78 25.5q-45 0 -178 -16l-28 -3l-3 57q151 31 226 31q164 0 164 -171v-270h114zM258 -80h76v-84h-76v84z" />
    <glyph glyph-name="uniFEA2" unicode="&#x62d;" horiz-adv-x="607" arabic-form="final" 
d="M607 69v-69h-191q-28 16 -71.5 28t-88.5 12q-67 0 -102 -32t-35 -103q0 -74 41 -113.5t126 -39.5q72 0 185 22l9 -61q-128 -29 -210 -29q-113 0 -171.5 58t-58.5 167q0 200 205 200q54 0 100 -12.5t71 -27.5v271q0 50 -26 75.5t-78 25.5q-45 0 -178 -16l-28 -3l-3 57
q151 31 226 31q164 0 164 -171v-270h114z" />
    <glyph glyph-name="uniFEA3" unicode="&#x62d;" horiz-adv-x="538" arabic-form="initial" 
d="M478 339v-339h-478v69h401v271q0 50 -26 75.5t-78 25.5q-45 0 -178 -16l-28 -3l-3 57q151 31 226 31q164 0 164 -171z" />
    <glyph glyph-name="uniFEA4" unicode="&#x62d;" horiz-adv-x="592" arabic-form="medial" 
d="M592 69v-69h-592v69h401v271q0 50 -26 75.5t-78 25.5q-45 0 -178 -16l-28 -3l-3 57q151 31 226 31q164 0 164 -171v-270h114z" />
    <glyph glyph-name="uniFEA6" unicode="&#x62e;" horiz-adv-x="607" arabic-form="final" 
d="M40 0zM607 69v-69h-191q-28 16 -71.5 28t-88.5 12q-67 0 -102 -32t-35 -103q0 -74 41 -113.5t126 -39.5q72 0 185 22l9 -61q-128 -29 -210 -29q-113 0 -171.5 58t-58.5 167q0 200 205 200q54 0 100 -12.5t71 -27.5v271q0 50 -26 75.5t-78 25.5q-45 0 -178 -16l-28 -3
l-3 57q151 31 226 31q164 0 164 -171v-270h114zM239 677h76v-84h-76v84z" />
    <glyph glyph-name="uniFEA7" unicode="&#x62e;" horiz-adv-x="538" arabic-form="initial" 
d="M0 0zM478 339v-339h-478v69h401v271q0 50 -26 75.5t-78 25.5q-45 0 -178 -16l-28 -3l-3 57q151 31 226 31q164 0 164 -171zM241 677h76v-84h-76v84z" />
    <glyph glyph-name="uniFEA8" unicode="&#x62e;" horiz-adv-x="592" arabic-form="medial" 
d="M0 0zM592 69v-69h-592v69h401v271q0 50 -26 75.5t-78 25.5q-45 0 -178 -16l-28 -3l-3 57q151 31 226 31q164 0 164 -171v-270h114zM258 677h76v-84h-76v84z" />
    <glyph glyph-name="uniFEAA" unicode="&#x62f;" horiz-adv-x="536" arabic-form="final" 
d="M536 69v-69h-496v69h325v116q0 148 -57.5 207.5t-134.5 59.5h-81l-5 57q10 4 40.5 8t58.5 4q109 0 182.5 -78.5t73.5 -255.5v-118h94z" />
    <glyph glyph-name="uniFEAC" unicode="&#x630;" horiz-adv-x="536" arabic-form="final" 
d="M40 0zM536 69v-69h-496v69h325v116q0 148 -57.5 207.5t-134.5 59.5h-81l-5 57q10 4 40.5 8t58.5 4q109 0 182.5 -78.5t73.5 -255.5v-118h94zM94 704h76v-84h-76v84z" />
    <glyph glyph-name="uniFEAE" unicode="&#x631;" horiz-adv-x="404" arabic-form="final" 
d="M404 0h-125v-11q0 -238 -165 -238q-16 0 -29.5 1t-23.5 2l-21 2v68q50 -4 63 -4q50 0 74.5 39.5t24.5 110.5v529h77v-430h125v-69z" />
    <glyph glyph-name="uniFEB0" unicode="&#x632;" horiz-adv-x="404" arabic-form="final" 
d="M40 0zM404 0h-125v-11q0 -238 -165 -238q-16 0 -29.5 1t-23.5 2l-21 2v68q50 -4 63 -4q50 0 74.5 39.5t24.5 110.5v529h77v-430h125v-69zM201 677h76v-84h-76v84z" />
    <glyph glyph-name="uniFEB2" unicode="&#x633;" horiz-adv-x="1184" arabic-form="final" 
d="M1184 69v-69h-300q-61 0 -111 42q-36 -42 -95 -42h-123v-40q0 -67 -34.5 -114t-92 -70.5t-125.5 -23.5q-73 0 -133 27t-95 75.5t-35 110.5q0 38 12 127t28 181l74 -4q-15 -88 -26 -172t-11 -116q0 -47 24.5 -83.5t66 -56.5t90.5 -20q48 0 89.5 19t66 53.5t24.5 77.5v479
h77v-381h99q46 0 66.5 39.5t20.5 99.5v242h77v-241q0 -61 -14 -106q15 -13 38 -23.5t46 -10.5h105v217q0 38 -5.5 95.5t-12.5 115.5l63 3q13 -57 22.5 -121t9.5 -101v-209h114z" />
    <glyph glyph-name="uniFEB3" unicode="&#x633;" horiz-adv-x="824" arabic-form="initial" 
d="M744.5 379q9.5 -64 9.5 -101v-278h-186q-61 0 -111 42q-36 -42 -95 -42h-362v69h162v381h77v-381h99q46 0 66.5 39.5t20.5 99.5v242h77v-241q0 -61 -14 -106q15 -13 38 -23.5t46 -10.5h105v217q0 38 -5.5 95.5t-12.5 115.5l63 3q13 -57 22.5 -121z" />
    <glyph glyph-name="uniFEB4" unicode="&#x633;" horiz-adv-x="848" arabic-form="medial" 
d="M848 69v-69h-280q-61 0 -111 42q-36 -42 -95 -42h-362v69h162v381h77v-381h99q46 0 66.5 39.5t20.5 99.5v242h77v-241q0 -61 -14 -106q15 -13 38 -23.5t46 -10.5h105v217q0 38 -5.5 95.5t-12.5 115.5l63 3q13 -57 22.5 -121t9.5 -101v-209h94z" />
    <glyph glyph-name="uniFEB6" unicode="&#x634;" horiz-adv-x="1184" arabic-form="final" 
d="M40 0zM1184 69v-69h-300q-61 0 -111 42q-36 -42 -95 -42h-123v-40q0 -67 -34.5 -114t-92 -70.5t-125.5 -23.5q-73 0 -133 27t-95 75.5t-35 110.5q0 38 12 127t28 181l74 -4q-15 -88 -26 -172t-11 -116q0 -47 24.5 -83.5t66 -56.5t90.5 -20q48 0 89.5 19t66 53.5
t24.5 77.5v479h77v-381h99q46 0 66.5 39.5t20.5 99.5v242h77v-241q0 -61 -14 -106q15 -13 38 -23.5t46 -10.5h105v217q0 38 -5.5 95.5t-12.5 115.5l63 3q13 -57 22.5 -121t9.5 -101v-209h114zM741 799h75v-81h-75v81zM678 677h76v-84h-76v84zM803 677h76v-84h-76v84z" />
    <glyph glyph-name="uniFEB7" unicode="&#x634;" horiz-adv-x="824" arabic-form="initial" 
d="M0 0zM744.5 379q9.5 -64 9.5 -101v-278h-186q-61 0 -111 42q-36 -42 -95 -42h-362v69h162v381h77v-381h99q46 0 66.5 39.5t20.5 99.5v242h77v-241q0 -61 -14 -106q15 -13 38 -23.5t46 -10.5h105v217q0 38 -5.5 95.5t-12.5 115.5l63 3q13 -57 22.5 -121zM425 799h75v-81
h-75v81zM362 677h76v-84h-76v84zM487 677h76v-84h-76v84z" />
    <glyph glyph-name="uniFEB8" unicode="&#x634;" horiz-adv-x="848" arabic-form="medial" 
d="M0 0zM848 69v-69h-280q-61 0 -111 42q-36 -42 -95 -42h-362v69h162v381h77v-381h99q46 0 66.5 39.5t20.5 99.5v242h77v-241q0 -61 -14 -106q15 -13 38 -23.5t46 -10.5h105v217q0 38 -5.5 95.5t-12.5 115.5l63 3q13 -57 22.5 -121t9.5 -101v-209h94zM405 799h75v-81h-75
v81zM342 677h76v-84h-76v84zM467 677h76v-84h-76v84z" />
    <glyph glyph-name="uniFEBA" unicode="&#x635;" horiz-adv-x="1184" arabic-form="final" 
d="M1184 69v-69h-629v-40q0 -67 -34.5 -114t-92 -70.5t-125.5 -23.5q-73 0 -133 27t-95 75.5t-35 110.5q0 38 12 127t28 181l74 -4q-37 -235 -37 -287q0 -47 24.5 -84t66 -57t90.5 -20q48 0 89 19t66 53.5t25 77.5v529h77v-160q45 56 81.5 91t85.5 57t113 22
q126 0 178.5 -77.5t52.5 -181.5v-182h118zM712 407q-53 -34 -86 -72.5t-71 -91.5v-174h434v171q0 86 -41.5 143.5t-120.5 57.5q-62 0 -115 -34z" />
    <glyph glyph-name="uniFEBB" unicode="&#x635;" horiz-adv-x="804" arabic-form="initial" 
d="M681.5 432.5q52.5 -77.5 52.5 -181.5v-251h-734v69h146v431h77v-160q45 56 81.5 91t85.5 57t113 22q126 0 178.5 -77.5zM380 407q-53 -34 -86 -72.5t-71 -91.5v-174h434v171q0 86 -41.5 143.5t-120.5 57.5q-62 0 -115 -34z" />
    <glyph glyph-name="uniFEBC" unicode="&#x635;" horiz-adv-x="828" arabic-form="medial" 
d="M828 69v-69h-828v69h146v431h77v-160q45 56 81.5 91t85.5 57t113 22q126 0 178.5 -77.5t52.5 -181.5v-182h94zM380 407q-53 -34 -86 -72.5t-71 -91.5v-174h434v171q0 86 -41.5 143.5t-120.5 57.5q-62 0 -115 -34z" />
    <glyph glyph-name="uniFEBE" unicode="&#x636;" horiz-adv-x="1184" arabic-form="final" 
d="M40 0zM1184 69v-69h-629v-40q0 -67 -34.5 -114t-92 -70.5t-125.5 -23.5q-73 0 -133 27t-95 75.5t-35 110.5q0 38 12 127t28 181l74 -4q-37 -235 -37 -287q0 -47 24.5 -84t66 -57t90.5 -20q48 0 89 19t66 53.5t25 77.5v529h77v-160q45 56 81.5 91t85.5 57t113 22
q126 0 178.5 -77.5t52.5 -181.5v-182h118zM712 407q-53 -34 -86 -72.5t-71 -91.5v-174h434v171q0 86 -41.5 143.5t-120.5 57.5q-62 0 -115 -34zM741 677h76v-84h-76v84z" />
    <glyph glyph-name="uniFEBF" unicode="&#x636;" horiz-adv-x="804" arabic-form="initial" 
d="M0 0zM681.5 432.5q52.5 -77.5 52.5 -181.5v-251h-734v69h146v431h77v-160q45 56 81.5 91t85.5 57t113 22q126 0 178.5 -77.5zM380 407q-53 -34 -86 -72.5t-71 -91.5v-174h434v171q0 86 -41.5 143.5t-120.5 57.5q-62 0 -115 -34zM425 677h76v-84h-76v84z" />
    <glyph glyph-name="uniFEC0" unicode="&#x636;" horiz-adv-x="828" arabic-form="medial" 
d="M0 0zM828 69v-69h-828v69h146v431h77v-160q45 56 81.5 91t85.5 57t113 22q126 0 178.5 -77.5t52.5 -181.5v-182h94zM380 407q-53 -34 -86 -72.5t-71 -91.5v-174h434v171q0 86 -41.5 143.5t-120.5 57.5q-62 0 -115 -34zM405 677h76v-84h-76v84z" />
    <glyph glyph-name="uniFEC2" unicode="&#x637;" horiz-adv-x="780" arabic-form="final" 
d="M780 69v-69h-756v69h54v649h77v-378q45 56 81.5 91t85.5 57t113 22q126 0 178.5 -77.5t52.5 -181.5v-182h114zM312 407q-53 -34 -86 -72.5t-71 -91.5v-174h434v171q0 86 -41.5 143.5t-120.5 57.5q-62 0 -115 -34z" />
    <glyph glyph-name="uniFEC3" unicode="&#x637;" horiz-adv-x="746" arabic-form="initial" 
d="M570.5 484q50.5 -26 83 -84.5t32.5 -148.5v-251h-686v69h94v649h77v-438q62 104 131 167t161 63q57 0 107.5 -26zM313.5 380.5q-63.5 -60.5 -103 -142t-39.5 -132.5v-37h438v183q0 66 -24.5 108.5t-61.5 61.5t-75 19q-71 0 -134.5 -60.5z" />
    <glyph glyph-name="uniFEC4" unicode="&#x637;" horiz-adv-x="780" arabic-form="medial" 
d="M780 69v-69h-780v69h94v649h77v-438q62 104 131 167t161 63q57 0 107.5 -26t83 -84.5t32.5 -148.5v-182h94zM313.5 380.5q-63.5 -60.5 -103 -142t-39.5 -132.5v-37h438v183q0 66 -24.5 108.5t-61.5 61.5t-75 19q-71 0 -134.5 -60.5z" />
    <glyph glyph-name="uniFEC6" unicode="&#x638;" horiz-adv-x="780" arabic-form="final" 
d="M24 0zM780 69v-69h-756v69h54v649h77v-378q45 56 81.5 91t85.5 57t113 22q126 0 178.5 -77.5t52.5 -181.5v-182h114zM312 407q-53 -34 -86 -72.5t-71 -91.5v-174h434v171q0 86 -41.5 143.5t-120.5 57.5q-62 0 -115 -34zM342 677h76v-84h-76v84z" />
    <glyph glyph-name="uniFEC7" unicode="&#x638;" horiz-adv-x="746" arabic-form="initial" 
d="M0 0zM570.5 484q50.5 -26 83 -84.5t32.5 -148.5v-251h-686v69h94v649h77v-438q62 104 131 167t161 63q57 0 107.5 -26zM313.5 380.5q-63.5 -60.5 -103 -142t-39.5 -132.5v-37h438v183q0 66 -24.5 108.5t-61.5 61.5t-75 19q-71 0 -134.5 -60.5zM345 677h76v-84h-76v84z
" />
    <glyph glyph-name="uniFEC8" unicode="&#x638;" horiz-adv-x="780" arabic-form="medial" 
d="M0 0zM780 69v-69h-780v69h94v649h77v-438q62 104 131 167t161 63q57 0 107.5 -26t83 -84.5t32.5 -148.5v-182h94zM313.5 380.5q-63.5 -60.5 -103 -142t-39.5 -132.5v-37h438v183q0 66 -24.5 108.5t-61.5 61.5t-75 19q-71 0 -134.5 -60.5zM342 677h76v-84h-76v84z" />
    <glyph glyph-name="uniFECA" unicode="&#x639;" horiz-adv-x="590" arabic-form="final" 
d="M178.5 6q-32.5 -32 -32.5 -100q0 -154 166 -154q73 0 186 22l9 -61l-33 -7q-103 -22 -177 -22q-113 0 -171.5 58.5t-58.5 168.5q0 83 34 129t102 62q-72 59 -115 135.5t-45 134.5l-3 71q128 67 247 67q118 0 249 -67l-3 -71q-2 -39 -22 -88.5t-58.5 -100.5t-91.5 -90
q62 -24 123 -24h106v-69h-106q-49 0 -101 12t-95 34l-13 -6q-64 -2 -96.5 -34zM165.5 251.5q46.5 -71.5 122.5 -121.5q77 50 123.5 121.5t46.5 152.5q-99 37 -170 37q-69 0 -169 -37q0 -81 46.5 -152.5z" />
    <glyph glyph-name="uniFECB" unicode="&#x639;" horiz-adv-x="557" arabic-form="initial" 
d="M527 69v-69h-527v69h187q-28 32 -47 86t-19 120q0 105 54.5 170t156.5 65q39 0 83.5 -10.5t81.5 -29.5l-3 -68q-15 11 -64 25t-89 14q-69 0 -106 -46t-37 -125q0 -65 23.5 -117.5t58.5 -83.5h247z" />
    <glyph glyph-name="uniFECC" unicode="&#x639;" horiz-adv-x="613" arabic-form="medial" 
d="M613 69v-69h-105q-50 0 -102 12t-95 34q-43 -21 -93.5 -33.5t-99.5 -12.5h-118v69h115q61 0 122 23q-77 59 -123 139t-48 141l-3 71q128 67 247 67q118 0 249 -67l-3 -71q-2 -39 -22 -88.5t-58.5 -100.5t-90.5 -90q60 -24 122 -24h106zM188 250.5q46 -71.5 123 -120.5
q76 49 123 121t47 153q-99 37 -170 37q-69 0 -169 -37q0 -82 46 -153.5z" />
    <glyph glyph-name="uniFECE" unicode="&#x63a;" horiz-adv-x="590" arabic-form="final" 
d="M40 0zM178.5 6q-32.5 -32 -32.5 -100q0 -154 166 -154q73 0 186 22l9 -61l-33 -7q-103 -22 -177 -22q-113 0 -171.5 58.5t-58.5 168.5q0 83 34 129t102 62q-72 59 -115 135.5t-45 134.5l-3 71q128 67 247 67q118 0 249 -67l-3 -71q-2 -39 -22 -88.5t-58.5 -100.5
t-91.5 -90q62 -24 123 -24h106v-69h-106q-49 0 -101 12t-95 34l-13 -6q-64 -2 -96.5 -34zM165.5 251.5q46.5 -71.5 122.5 -121.5q77 50 123.5 121.5t46.5 152.5q-99 37 -170 37q-69 0 -169 -37q0 -81 46.5 -152.5zM247 677h76v-84h-76v84z" />
    <glyph glyph-name="uniFECF" unicode="&#x63a;" horiz-adv-x="557" arabic-form="initial" 
d="M0 0zM527 69v-69h-527v69h187q-28 32 -47 86t-19 120q0 105 54.5 170t156.5 65q39 0 83.5 -10.5t81.5 -29.5l-3 -68q-15 11 -64 25t-89 14q-69 0 -106 -46t-37 -125q0 -65 23.5 -117.5t58.5 -83.5h247zM282 677h76v-84h-76v84z" />
    <glyph glyph-name="uniFED0" unicode="&#x63a;" horiz-adv-x="613" arabic-form="medial" 
d="M0 0zM613 69v-69h-105q-50 0 -102 12t-95 34q-43 -21 -93.5 -33.5t-99.5 -12.5h-118v69h115q61 0 122 23q-77 59 -123 139t-48 141l-3 71q128 67 247 67q118 0 249 -67l-3 -71q-2 -39 -22 -88.5t-58.5 -100.5t-90.5 -90q60 -24 122 -24h106zM188 250.5
q46 -71.5 123 -120.5q76 49 123 121t47 153q-99 37 -170 37q-69 0 -169 -37q0 -82 46 -153.5zM269 677h76v-84h-76v84z" />
    <glyph glyph-name="uniFED2" unicode="&#x641;" horiz-adv-x="988" arabic-form="final" 
d="M40 0zM988 69v-69h-689q-96 0 -152 16t-81.5 51t-25.5 96q0 41 9.5 105t22.5 122l60 -3q-1 -7 -7 -50q-16 -117 -16 -156q0 -43 17.5 -67t58 -34.5t113.5 -10.5h226q-27 53 -27 169q0 103 21.5 159t72 79t143.5 23q76 0 138 -7l28 -3v-420h88zM610 69h213v359
q-68 5 -96 5q-63 0 -96 -19t-45.5 -60t-12.5 -114q0 -127 37 -171zM695 677h76v-84h-76v84z" />
    <glyph glyph-name="uniFED3" unicode="&#x641;" horiz-adv-x="578" arabic-form="initial" 
d="M0 0zM518 489v-489h-518v69h142q-27 53 -27 169q0 103 21.5 159t72 79t143.5 23q76 0 138 -7zM228 69h213v359q-68 5 -96 5q-63 0 -96 -19t-45.5 -60t-12.5 -114q0 -127 37 -171zM298 677h76v-84h-76v84z" />
    <glyph glyph-name="uniFED4" unicode="&#x641;" horiz-adv-x="606" arabic-form="medial" 
d="M0 0zM606 69v-69h-606v69h142q-27 53 -27 169q0 103 21.5 159t72 79t143.5 23q76 0 138 -7l28 -3v-420h88zM228 69h213v359q-68 5 -96 5q-63 0 -96 -19t-45.5 -60t-12.5 -114q0 -127 37 -171zM277 677h76v-84h-76v84z" />
    <glyph glyph-name="uniFED6" unicode="&#x642;" horiz-adv-x="900" arabic-form="final" 
d="M40 0zM900 0h-113v-37q0 -96 -62 -154t-171 -58h-281q-109 0 -171 58t-62 155q0 73 36 283l73 -12q-17 -109 -24.5 -164t-7.5 -90q0 -75 39.5 -118t119.5 -43h274q81 0 120.5 43t39.5 118v19h-145q-69 0 -107.5 20t-56 70t-17.5 143q0 96 20 153.5t68 85.5t135 28
q30 0 76 -2.5t76 -5.5l28 -3v-420h113v-69zM473.5 134q12.5 -36 40.5 -50.5t77 -14.5h119v358q-69 6 -94 6q-60 0 -93.5 -20.5t-47.5 -63t-14 -112.5q0 -67 12.5 -103zM519 677h76v-84h-76v84zM644 677h76v-84h-76v84z" />
    <glyph glyph-name="uniFED7" unicode="&#x642;" horiz-adv-x="578" arabic-form="initial" 
d="M0 0zM518 489v-489h-518v69h142q-27 53 -27 169q0 103 21.5 159t72 79t143.5 23q76 0 138 -7zM228 69h213v359q-68 5 -96 5q-63 0 -96 -19t-45.5 -60t-12.5 -114q0 -127 37 -171zM236 677h76v-84h-76v84zM361 677h76v-84h-76v84z" />
    <glyph glyph-name="uniFED8" unicode="&#x642;" horiz-adv-x="606" arabic-form="medial" 
d="M0 0zM606 69v-69h-606v69h142q-27 53 -27 169q0 103 21.5 159t72 79t143.5 23q76 0 138 -7l28 -3v-420h88zM228 69h213v359q-68 5 -96 5q-63 0 -96 -19t-45.5 -60t-12.5 -114q0 -127 37 -171zM215 677h76v-84h-76v84zM340 677h76v-84h-76v84z" />
    <glyph glyph-name="uniFEDA" unicode="&#x643;" horiz-adv-x="820" arabic-form="final" 
d="M50 0zM820 69v-69h-511q-96 0 -152 16t-81.5 51t-25.5 96q0 68 26 198l62 -3q-4 -28 -5 -42q-14 -94 -14 -135q0 -43 17.5 -67t58 -34.5t113.5 -10.5h286v649h77v-649h149zM455 395l-204 -40l-9 32l48 13q-34 28 -34 71q0 37 26 63.5t67 26.5q23 0 43 -8t30 -16l-10 -38
q-6 5 -18.5 10t-27.5 5q-26 0 -42.5 -17t-16.5 -40q0 -29 23 -46l114 30z" />
    <glyph glyph-name="uniFEDB" unicode="&#x643;" horiz-adv-x="586" arabic-form="initial" 
d="M485.5 371q40.5 -61 40.5 -158v-213h-526v69h449v145q0 60 -22.5 104t-74.5 45h-271l-51 69l52 102q18 36 54.5 87.5t73.5 96.5l55 -31q-46 -69 -69 -106.5t-42 -74.5l-38 -74h242q87 0 127.5 -61z" />
    <glyph glyph-name="uniFEDC" unicode="&#x643;" horiz-adv-x="669" arabic-form="medial" 
d="M669 69v-69h-669v69h449v145q0 60 -22.5 104t-74.5 45h-271l-51 69l52 102q18 36 54.5 87.5t73.5 96.5l55 -31q-46 -69 -69 -106.5t-42 -74.5l-38 -74h242q87 0 127.5 -61t40.5 -158v-144h143z" />
    <glyph glyph-name="uniFEDE" unicode="&#x644;" horiz-adv-x="670" arabic-form="final" 
d="M670 0h-115v-40q0 -67 -34.5 -114t-92 -70.5t-125.5 -23.5q-73 0 -133 27t-95 75t-35 110q0 38 12 128t28 181l74 -4q-15 -98 -26 -184.5t-11 -115.5q0 -43 24.5 -77t66.5 -52.5t93 -18.5q74 0 125.5 38.5t51.5 109.5v749h77v-649h115v-69z" />
    <glyph glyph-name="uniFEDF" unicode="&#x644;" horiz-adv-x="290" arabic-form="initial" 
d="M200 718v-718h-200v69h123v649h77z" />
    <glyph glyph-name="uniFEE0" unicode="&#x644;" horiz-adv-x="327" arabic-form="medial" 
d="M327 69v-69h-327v69h123v649h77v-649h127z" />
    <glyph glyph-name="uniFEE2" unicode="&#x645;" horiz-adv-x="656" arabic-form="final" 
d="M656 69v-69h-32q-18 0 -40 11t-41 29v-40h-322q-111 0 -111 -137q0 -63 27 -188l-65 -2q-31 144 -31 218q0 73 24.5 112.5t62.5 54.5q-16 84 -16 186q0 67 8 132.5t18 106.5q24 10 70 18.5t97 8.5q122 0 180 -60t58 -200v-142q33 -39 81 -39h32zM466 69v182
q0 102 -43 146t-131 44q-49 0 -87 -10q-16 -87 -16 -187q0 -49 4.5 -97.5t9.5 -77.5h263z" />
    <glyph glyph-name="uniFEE3" unicode="&#x645;" horiz-adv-x="642" arabic-form="initial" 
d="M524 450q58 -60 58 -200v-250h-582v69h165q-14 86 -14 175q0 67 8 132.5t18 106.5q24 10 70 18.5t97 8.5q122 0 180 -60zM232.5 146.5q4.5 -48.5 9.5 -77.5h263v182q0 102 -43 146t-131 44q-49 0 -87 -10q-16 -87 -16 -187q0 -49 4.5 -97.5z" />
    <glyph glyph-name="uniFEE4" unicode="&#x645;" horiz-adv-x="694" arabic-form="medial" 
d="M694 69v-69h-32q-19 0 -40.5 10.5t-39.5 28.5v-39h-582v69h165q-14 86 -14 175q0 67 8 132.5t18 106.5q24 10 70 18.5t97 8.5q122 0 180 -60t58 -200v-143q32 -38 80 -38h32zM232.5 146.5q4.5 -48.5 9.5 -77.5h263v182q0 102 -43 146t-131 44q-49 0 -87 -10
q-16 -87 -16 -187q0 -49 4.5 -97.5z" />
    <glyph glyph-name="uniFEE6" unicode="&#x646;" horiz-adv-x="669" arabic-form="final" 
d="M40 0zM669 0h-114v-40q0 -67 -34.5 -114t-92 -70.5t-125.5 -23.5q-73 0 -133 27t-95 75t-35 110q0 38 12 128t28 181l74 -4q-15 -98 -26 -184.5t-11 -115.5q0 -43 24.5 -77t66.5 -52.5t93 -18.5q74 0 125.5 38.5t51.5 109.5v531h77v-431h114v-69zM267 584h76v-84h-76v84z
" />
    <glyph glyph-name="uniFEE7" unicode="&#x646;" horiz-adv-x="306" arabic-form="initial" 
d="M0 0zM226 500v-500h-226v69h149v431h77zM149 677h76v-84h-76v84z" />
    <glyph glyph-name="uniFEE8" unicode="&#x646;" horiz-adv-x="375" arabic-form="medial" 
d="M0 0zM375 69v-69h-375v69h149v431h77v-431h149zM149 677h76v-84h-76v84z" />
    <glyph glyph-name="uniFEEA" unicode="&#x647;" horiz-adv-x="609" arabic-form="final" 
d="M609 69v-69h-333q-89 0 -140 25t-73.5 79.5t-22.5 148.5q0 93 21.5 149t71 82t133.5 26q37 0 113.5 -3.5t115.5 -7.5v-430h114zM133.5 146q16.5 -40 53.5 -58.5t102 -18.5h129v365q-88 6 -136 6q-91 0 -128 -43t-37 -142q0 -69 16.5 -109z" />
    <glyph glyph-name="uniFEEB" unicode="&#x647;" horiz-adv-x="760" arabic-form="initial" 
d="M607.5 465q92.5 -78 92.5 -256v-209h-700v69h115v80q0 49 24.5 90.5t66 66t90.5 24.5q48 0 89.5 -23.5t66 -65t24.5 -92.5v-80h147v138q0 148 -74.5 207.5t-188.5 59.5q-44 0 -93.5 -6.5t-118.5 -18.5l-5 59q130 35 231 35q141 0 233.5 -78zM222 231q-30 -30 -30 -73v-89
h207v89q0 43 -29.5 73t-73.5 30t-74 -30z" />
    <glyph glyph-name="uniFEEC" unicode="&#x647;" horiz-adv-x="799" arabic-form="medial" 
d="M799 69v-69h-799v69h115v80q0 49 24.5 90.5t66 66t90.5 24.5q48 0 89.5 -23.5t66 -65t24.5 -92.5v-80h147v138q0 148 -74.5 207.5t-188.5 59.5q-44 0 -93.5 -6.5t-118.5 -18.5l-5 59q130 35 231 35q141 0 233.5 -78t92.5 -256v-140h99zM222 231q-30 -30 -30 -73v-89h207
v89q0 43 -29.5 73t-73.5 30t-74 -30z" />
    <glyph glyph-name="uniFEEE" unicode="&#x648;" horiz-adv-x="567" arabic-form="final" 
d="M567 0h-125q-6 -126 -46.5 -187t-127.5 -61q-46 0 -151 15v68q93 -14 146 -14q35 0 56.5 12.5t34.5 51.5t13 115h-147q-109 0 -144.5 69t-35.5 179q0 93 18 151.5t65 89t131 30.5q40 0 96.5 -6t93.5 -13v-431h123v-69zM143 119.5q26 -50.5 106 -50.5h118v374q-54 7 -94 7
q-61 0 -95 -22.5t-47.5 -66t-13.5 -111.5q0 -80 26 -130.5z" />
    <glyph glyph-name="uniFEF0" unicode="&#x649;" horiz-adv-x="914" arabic-form="final" 
d="M914 0h-127v-13q0 -107 -57 -171t-164 -64h-263q-73 0 -133 27t-95 75.5t-35 110.5q0 61 26 221l73 -12q-22 -147 -22 -192q0 -47 24.5 -84t66 -57t90.5 -20l264 -1q71 0 109.5 45.5t38.5 115.5q0 13 -1 19h-24q-78 0 -123 29l32 57q18 -12 38.5 -14.5t59.5 -2.5h222v-69
z" />
    <glyph glyph-name="uniFEF2" unicode="&#x64a;" horiz-adv-x="914" arabic-form="final" 
d="M40 0zM914 0h-127v-13q0 -107 -57 -171t-164 -64h-263q-73 0 -133 27t-95 75.5t-35 110.5q0 61 26 221l73 -12q-22 -147 -22 -192q0 -47 24.5 -84t66 -57t90.5 -20l264 -1q71 0 109.5 45.5t38.5 115.5q0 13 -1 19h-24q-78 0 -123 29l32 57q18 -12 38.5 -14.5t59.5 -2.5
h222v-69zM312 -320h76v-84h-76v84zM437 -320h76v-84h-76v84z" />
    <glyph glyph-name="uniFEF3" unicode="&#x64a;" horiz-adv-x="306" arabic-form="initial" 
d="M0 0zM226 500v-500h-226v69h149v431h77zM86 -80h76v-84h-76v84zM211 -80h76v-84h-76v84z" />
    <glyph glyph-name="uniFEF4" unicode="&#x64a;" horiz-adv-x="375" arabic-form="medial" 
d="M0 0zM375 69v-69h-375v69h149v431h77v-431h149zM86 -80h76v-84h-76v84zM211 -80h76v-84h-76v84z" />
    <glyph glyph-name=".notdef" horiz-adv-x="235" 
 />
    <glyph glyph-name="uni0000" horiz-adv-x="0" 
 />
    <glyph glyph-name="uni0000" horiz-adv-x="0" 
 />
    <glyph glyph-name="nonmarkingreturn" horiz-adv-x="235" 
 />
    <glyph glyph-name="uni000D" unicode="&#xd;" horiz-adv-x="333" 
 />
    <glyph glyph-name="space" unicode=" " horiz-adv-x="220" 
 />
    <glyph glyph-name="exclam" unicode="!" horiz-adv-x="247" 
d="M84 692h79l-5 -464h-69zM83 112h82v-112h-82v112z" />
    <glyph glyph-name="quotedbl" unicode="&#x22;" horiz-adv-x="373" 
d="M67 692h75l-5 -222h-67zM232 692h75l-5 -222h-67z" />
    <glyph glyph-name="numbersign" unicode="#" 
d="M135 174h-111v64h111v186h-111v64h111v178h68v-178h154v178h68v-178h111v-64h-111v-186h111v-64h-111v-174h-68v174h-154v-174h-68v174zM357 238v186h-154v-186h154z" />
    <glyph glyph-name="dollar" unicode="$" 
d="M203 -117l14 111q-45 4 -127 16l-16 2l8 61q76 -10 143 -15l33 250q-72 17 -112 38t-58.5 55.5t-18.5 91.5q0 97 51.5 137t160.5 40l23 -1l17 129h51l-17 -132q65 -6 104 -12l21 -3l-6 -62l-28 3q-73 8 -99 10l-30 -233q68 -16 105.5 -35.5t54.5 -52t17 -87.5
q0 -203 -211 -203h-15l-14 -115q-51 3 -51 7zM296 605q-84 0 -118.5 -23t-34.5 -85q0 -36 11.5 -57t37.5 -34.5t75 -25.5zM385 89q35 33 35 100q0 35 -10.5 55t-34 31.5t-67.5 22.5l-31 -242q73 0 108 33z" />
    <glyph glyph-name="percent" unicode="%" 
d="M155 -4l205 685l48 -16l-205 -683zM56.5 426.5q-28.5 35.5 -28.5 106.5q0 137 110 137t110 -137q0 -71 -28.5 -106.5t-81.5 -35.5t-81.5 35.5zM176 464.5q12 22.5 12 69.5q0 44 -11.5 64.5t-37.5 20.5t-38 -20.5t-12 -64.5q0 -92 50 -92q25 0 37 22.5zM341.5 26
q-28.5 36 -28.5 106q0 137 110 137q109 0 109 -136q0 -71 -28.5 -107t-81.5 -36q-52 0 -80.5 36zM460.5 63q11.5 22 11.5 68t-11 66.5t-38 20.5t-38.5 -20t-11.5 -65q0 -48 12 -70t38 -22t37.5 22z" />
    <glyph glyph-name="ampersand" unicode="&#x26;" horiz-adv-x="688" 
d="M98.5 44q-56.5 54 -56.5 158q0 86 37 131.5t118 71.5q-30 33 -43.5 65t-13.5 73q0 78 45.5 118t129.5 40q85 0 128.5 -39t43.5 -115q0 -65 -35 -107t-119 -80l152 -150q22 63 28 162l73 -1q-14 -128 -46 -208l129 -122l-45 -50l-121 113q-40 -64 -92.5 -89t-130.5 -25
q-125 0 -181.5 54zM384.5 463.5q27.5 29.5 27.5 77.5q0 95 -98 95q-99 0 -99 -93q0 -62 45 -110l29 -28q68 29 95.5 58.5zM385.5 80.5q42.5 22.5 65.5 67.5l-211 210q-65 -20 -93.5 -53.5t-28.5 -96.5q0 -76 40 -113t121 -37q64 0 106.5 22.5z" />
    <glyph glyph-name="quotesingle" unicode="'" horiz-adv-x="208" 
d="M67 692h75l-5 -222h-67z" />
    <glyph glyph-name="parenleft" unicode="(" horiz-adv-x="264" 
d="M51 303q0 194 104 447h72q-37 -99 -66 -232t-29 -223q0 -83 25.5 -192.5t69.5 -227.5h-72q-104 235 -104 428z" />
    <glyph glyph-name="parenright" unicode=")" horiz-adv-x="264" 
d="M37 -125q48 131 71 232t23 187q0 102 -28 227.5t-66 228.5h72q104 -254 104 -447t-104 -428h-72z" />
    <glyph glyph-name="asterisk" unicode="*" horiz-adv-x="420" 
d="M192 497l-107 -79l-31 40l108 79l-106 77l31 42l106 -78l41 126l49 -16l-40 -127h130v-50h-132l41 -125l-49 -15z" />
    <glyph glyph-name="plus" unicode="+" 
d="M244 217h-189v68h189v195h70v-195h191v-68h-191v-197h-70v197z" />
    <glyph glyph-name="comma" unicode="," horiz-adv-x="223" 
d="M80 107h83l-67 -230h-62z" />
    <glyph glyph-name="hyphen" unicode="-" horiz-adv-x="438" 
d="M68 310h303v-70h-303v70z" />
    <glyph glyph-name="period" unicode="." horiz-adv-x="216" 
d="M67 114h82v-114h-82v114z" />
    <glyph glyph-name="slash" unicode="/" horiz-adv-x="412" 
d="M32 10l282 698l67 -25l-282 -697z" />
    <glyph glyph-name="zero" unicode="0" 
d="M145 23q-53 33 -79.5 108t-26.5 199t26.5 199t79.5 108.5t135 33.5q122 0 181 -79t59 -262q0 -124 -26.5 -199t-79.5 -108t-134 -33q-82 0 -135 33zM372 83.5q35 25.5 52 85t17 161.5t-17 161.5t-52 85t-92 25.5t-92 -25.5t-52 -85t-17 -161.5t17 -161.5t52 -85t92 -25.5
t92 25.5z" />
    <glyph glyph-name="one" unicode="1" 
d="M312 574l-170 -112l-35 58l210 140h72v-660h-77v574z" />
    <glyph glyph-name="two" unicode="2" 
d="M69 65l193 203q46 48 71.5 77.5t43.5 65.5t18 74q0 63 -34 89.5t-110 26.5q-63 0 -145 -17l-26 -5l-6 64q94 27 196 27q103 0 153.5 -43t50.5 -134q0 -68 -30 -120t-108 -127l-176 -179h331v-67h-422v65z" />
    <glyph glyph-name="three" unicode="3" 
d="M93 10l-31 7l7 63q114 -24 180 -24q77 0 121 29t44 101q0 120 -136 124h-133v66h133q29 0 56.5 15.5t45.5 43.5t18 63q0 55 -31.5 79.5t-103.5 24.5q-80 0 -158 -15l-26 -5l-7 61q93 28 202 28q107 0 155 -41t48 -131q0 -49 -26 -90t-72 -60q41 -15 65 -33t36.5 -48.5
t12.5 -78.5q0 -102 -52 -150.5t-162 -48.5q-86 0 -186 20z" />
    <glyph glyph-name="four" unicode="4" 
d="M360 129h-320v60l188 471h84l-191 -463h239v206h77v-206h84v-68h-84v-129h-77v129z" />
    <glyph glyph-name="five" unicode="5" 
d="M96 13l-33 7l9 61q113 -22 194 -22q77 0 117.5 40t40.5 114q0 71 -35.5 102.5t-104.5 31.5q-33 0 -72.5 -9.5t-63.5 -20.5l-21 -10l-53 10l18 343h385v-70h-321l-18 -215q77 41 155 41q210 0 210 -195q0 -111 -57.5 -170.5t-163.5 -59.5q-86 0 -186 22z" />
    <glyph glyph-name="six" unicode="6" 
d="M50 333q0 170 66.5 253.5t191.5 83.5q81 0 154 -12l27 -5l-7 -63q-90 12 -175 12t-131 -59t-46 -169l25 10q29 11 70 20t70 9q222 0 222 -205q0 -105 -60.5 -161.5t-170.5 -56.5q-236 0 -236 343zM397.5 96.5q39.5 38.5 39.5 109.5q0 69 -38 103.5t-109 34.5
q-31 0 -71 -9t-67 -19l-23 -10q1 -117 39.5 -182.5t113.5 -65.5q76 0 115.5 38.5z" />
    <glyph glyph-name="seven" unicode="7" 
d="M160 13l249 551v26h-332v70h410v-101l-254 -569z" />
    <glyph glyph-name="eight" unicode="8" 
d="M32 168q0 68 26 105.5t88 71.5q-55 28 -79 62.5t-24 92.5q0 85 63 128q61 43 172 43q112 0 175.5 -44.5t63.5 -127.5q0 -61 -24 -93.5t-86 -60.5q63 -28 91.5 -65t28.5 -101q0 -189 -247 -189q-248 0 -248 178zM328 375q55 18 81 45t26 70q0 111 -155 111t-155 -110
q0 -44 23.5 -71t74.5 -45h105zM445 187q0 51 -27.5 77t-89.5 44h-105q-56 -15 -82.5 -45t-26.5 -82q0 -121 166 -121q165 0 165 127z" />
    <glyph glyph-name="nine" unicode="9" 
d="M92 4l-26 4l7 62q90 -12 174 -12q180 0 182 230q-102 -38 -172 -38q-216 0 -216 201q0 101 62 160t167 59q239 0 239 -352q0 -171 -65 -249.5t-197 -78.5q-73 0 -155 14zM404 345l26 9q-3 248 -160 248q-70 0 -109.5 -40.5t-39.5 -110.5q0 -133 142 -133q62 0 141 27z
" />
    <glyph glyph-name="colon" unicode=":" horiz-adv-x="217" 
d="M67 436h82v-114h-82v114zM67 114h82v-114h-82v114z" />
    <glyph glyph-name="semicolon" unicode=";" horiz-adv-x="248" 
d="M87 436h82v-114h-82v114zM94 107h83l-67 -230h-62z" />
    <glyph glyph-name="less" unicode="&#x3c;" 
d="M61 218v66l416 203v-78l-339 -157l339 -160v-79z" />
    <glyph glyph-name="equal" unicode="=" 
d="M64 378h432v-69h-432v69zM64 193h432v-69h-432v69z" />
    <glyph glyph-name="greater" unicode="&#x3e;" 
d="M82 92l339 160l-339 157v78l416 -203v-66l-416 -205v79z" />
    <glyph glyph-name="question" unicode="?" horiz-adv-x="447" 
d="M152 262q0 32 21.5 61t75.5 76q37 32 54 51.5t24 40t7 51.5q0 47 -32 69.5t-101 22.5q-43 0 -155 -23l-5 61q100 30 167 30q104 0 153 -38t49 -122q0 -45 -7 -72t-25.5 -50t-55.5 -54q-55 -46 -74.5 -72t-19.5 -58v-35h-63q-13 26 -13 61zM154 113h82v-112h-82v112z" />
    <glyph glyph-name="at" unicode="@" horiz-adv-x="977" 
d="M305.5 -180.5q-79.5 22.5 -137.5 74.5q-117 102 -117 367q0 237 113.5 349.5t339.5 112.5q222 0 325.5 -102t103.5 -316v-13q0 -118 -19 -182.5t-55.5 -90t-96.5 -25.5q-96 0 -122 60q-98 -59 -174 -59q-84 0 -130 51.5t-46 186.5q0 98 20 157.5t64 87t119 27.5
q44 0 97 -19l18 -7v16h75v-191q0 -173 11 -208q8 -20 18 -28t20.5 -9.5t34.5 -1.5q41 0 60.5 33t24.5 81t5 121v14q0 125 -36 201.5t-113 113t-205 36.5q-193 0 -284.5 -95.5t-91.5 -305.5q0 -143 38.5 -228.5t120.5 -125t218 -39.5l143 10l3 -67q-94 -9 -146 -9
q-119 0 -198.5 22.5zM617 107q-9 54 -9 173v139q-62 20 -103 20q-54 0 -84 -20t-42.5 -62t-12.5 -113q0 -183 105 -183q44 0 146 46z" />
    <glyph glyph-name="A" unicode="A" horiz-adv-x="596" 
d="M446 178h-296l-50 -178h-76l190 692h168l190 -692h-76zM167 247h262l-105 379h-52z" />
    <glyph glyph-name="B" unicode="B" horiz-adv-x="616" 
d="M85 692h251q105 0 155.5 -43.5t50.5 -135.5q0 -61 -22 -97.5t-67 -58.5q56 -20 83 -60t27 -108q0 -98 -54.5 -143.5t-159.5 -45.5h-264v692zM340 385q63 0 93 30.5t30 91.5q0 62 -31 89.5t-99 27.5h-171v-239h178zM346 68q68 0 103.5 29t35.5 94q0 70 -39 98.5t-105 28.5
h-179v-250h184z" />
    <glyph glyph-name="C" unicode="C" horiz-adv-x="544" 
d="M158 29.5q-57 39.5 -78 115.5t-21 201q0 124 21 200.5t76.5 116t159.5 39.5q81 0 187 -22l-3 -65q-101 18 -174 18q-78 0 -118 -28t-54.5 -90t-14.5 -180q0 -102 13.5 -159.5t55.5 -87t127 -29.5q69 0 165 18l3 -66q-103 -21 -182 -21q-106 0 -163 39.5z" />
    <glyph glyph-name="D" unicode="D" horiz-adv-x="645" 
d="M493.5 646q56.5 -46 75.5 -117t19 -166q0 -190 -62.5 -276.5t-193.5 -86.5h-247v692h247q105 0 161.5 -46zM509 356q0 140 -43 204t-134 64h-170v-556h170q177 0 177 288z" />
    <glyph glyph-name="E" unicode="E" horiz-adv-x="553" 
d="M162 624v-239h284v-67h-284v-250h344v-68h-421v692h421v-68h-344z" />
    <glyph glyph-name="F" unicode="F" horiz-adv-x="526" 
d="M162 624v-270h285v-68h-285v-286h-77v692h414v-68h-337z" />
    <glyph glyph-name="G" unicode="G" horiz-adv-x="616" 
d="M166.5 28q-58.5 38 -84 115.5t-25.5 202.5q0 124 25.5 202t83.5 116t157 38q90 0 193 -20l34 -6l-3 -64q-124 21 -215 21q-76 0 -118.5 -28.5t-59.5 -90t-17 -168.5t17 -168.5t59 -90.5t118 -29q67 0 143 14v213h-115v69h191v-340q-126 -24 -225 -24q-100 0 -158.5 38z
" />
    <glyph glyph-name="H" unicode="H" horiz-adv-x="675" 
d="M590 692v-692h-76v313h-352v-313h-77v692h77v-310h352v310h76z" />
    <glyph glyph-name="I" unicode="I" horiz-adv-x="246" 
d="M85 692h77v-692h-77v692z" />
    <glyph glyph-name="J" unicode="J" horiz-adv-x="289" 
d="M18 -3q52 0 74 7t30.5 29t8.5 73v586h76l1 -597q0 -76 -21.5 -112t-59.5 -45.5t-109 -9.5v69z" />
    <glyph glyph-name="K" unicode="K" horiz-adv-x="569" 
d="M277 306l-115 -4v-302h-77v692h77v-322l114 4l177 318h88l-198 -348l209 -344h-91z" />
    <glyph glyph-name="L" unicode="L" horiz-adv-x="479" 
d="M466 69v-69h-381v692h77v-623h304z" />
    <glyph glyph-name="M" unicode="M" horiz-adv-x="840" 
d="M755 692v-692h-77v610h-14l-201 -585h-86l-201 585h-14v-610h-77v692h139l196 -586l196 586h139z" />
    <glyph glyph-name="N" unicode="N" horiz-adv-x="676" 
d="M591 692v-692h-141l-269 624h-19v-624h-77v692h144l266 -624h20v624h76z" />
    <glyph glyph-name="O" unicode="O" horiz-adv-x="660" 
d="M168 27q-60 37 -85.5 113.5t-25.5 202.5q0 125 26 203.5t86 117t161 38.5t161 -38.5t86.5 -117t26.5 -205.5t-25.5 -203t-85 -112t-162.5 -36t-163 37zM448.5 86q41.5 28 58.5 88.5t17 166.5t-17.5 169t-59.5 93.5t-117 30.5t-117 -30t-59.5 -93t-17.5 -168t17 -166.5
t59.5 -90t118.5 -28.5t117.5 28z" />
    <glyph glyph-name="P" unicode="P" horiz-adv-x="593" 
d="M85 692h253q113 0 167 -54.5t54 -168.5q0 -236 -221 -236h-176v-233h-77v692zM337 301q143 0 143 168q0 81 -34 118t-109 37h-175v-323h175z" />
    <glyph glyph-name="Q" unicode="Q" horiz-adv-x="660" 
d="M414 -1q-33 -9 -84 -9q-103 0 -162.5 37t-85 113.5t-25.5 202.5q0 125 26 203.5t86 117t161 38.5t161 -38.5t86.5 -117t26.5 -203.5q0 -129 -26.5 -205t-88.5 -112l85 -137l-72 -34zM448.5 86q41.5 28 58.5 88.5t17 166.5t-17.5 169t-59.5 93.5t-117 30.5t-117 -30
t-59.5 -93t-17.5 -168t17 -166.5t59.5 -90t118.5 -28.5t117.5 28z" />
    <glyph glyph-name="R" unicode="R" horiz-adv-x="616" 
d="M85 692h256q111 0 166 -51.5t55 -158.5q0 -161 -127 -201l133 -281h-85l-125 265h-196v-265h-77v692zM342 333q141 0 141 146q0 145 -142 145h-179v-291h180z" />
    <glyph glyph-name="S" unicode="S" horiz-adv-x="542" 
d="M90 8l-36 5l8 64q137 -18 207 -18q148 0 148 139q0 38 -13.5 60t-46 36t-94.5 26q-82 17 -127.5 39t-66.5 59t-21 99q0 186 223 186q77 0 209 -20l-7 -65q-144 17 -197 17q-150 0 -150 -113q0 -43 14.5 -65.5t49.5 -36.5t111 -31q74 -17 114.5 -38t59.5 -55.5t19 -91.5
q0 -213 -221 -213q-70 0 -183 17z" />
    <glyph glyph-name="T" unicode="T" horiz-adv-x="526" 
d="M226 623h-213v69h500v-69h-211v-623h-76v623z" />
    <glyph glyph-name="U" unicode="U" horiz-adv-x="644" 
d="M139.5 42.5q-59.5 52.5 -59.5 167.5v482h77v-484q0 -150 162 -150q85 0 127 36t42 114v484h76v-482q0 -114 -60.5 -167t-182.5 -53t-181.5 52.5z" />
    <glyph glyph-name="V" unicode="V" horiz-adv-x="582" 
d="M24 692h80l159 -624h56l159 624h80l-181 -692h-172z" />
    <glyph glyph-name="W" unicode="W" horiz-adv-x="886" 
d="M30 692h80l118 -624h29l141 618h90l141 -618h29l118 624h79l-140 -692h-141l-131 591l-131 -591h-141z" />
    <glyph glyph-name="X" unicode="X" horiz-adv-x="558" 
d="M233 339l-214 353h87l175 -296l176 296h83l-213 -351l213 -341h-87l-174 287l-177 -287h-83z" />
    <glyph glyph-name="Y" unicode="Y" horiz-adv-x="538" 
d="M231 291l-221 401h87l172 -324l172 324h87l-220 -401v-291h-77v291z" />
    <glyph glyph-name="Z" unicode="Z" horiz-adv-x="536" 
d="M43 88l361 514v22h-361v68h450v-90l-362 -514v-20h362v-69h-450v89z" />
    <glyph glyph-name="bracketleft" unicode="[" horiz-adv-x="329" 
d="M79 749h210v-67h-134v-738h134v-67h-210v872z" />
    <glyph glyph-name="backslash" unicode="\" horiz-adv-x="436" 
d="M30 678l67 29l308 -693l-67 -28z" />
    <glyph glyph-name="bracketright" unicode="]" horiz-adv-x="329" 
d="M40 -123v67h134v738h-134v67h210v-872h-210z" />
    <glyph glyph-name="asciicircum" unicode="^" 
d="M243 660h67l191 -341h-80l-143 267l-140 -267h-80z" />
    <glyph glyph-name="underscore" unicode="_" horiz-adv-x="632" 
d="M102 -92h428v-66h-428v66z" />
    <glyph glyph-name="grave" unicode="`" horiz-adv-x="236" 
d="M-1 676l26 64l216 -98l-21 -51z" />
    <glyph glyph-name="a" unicode="a" horiz-adv-x="501" 
d="M76 29q-36 39 -36 112q0 72 36.5 107t116.5 43l157 15v43q0 95 -82 95q-81 0 -197 -13l-3 57q107 22 195 22q85 0 123.5 -38.5t38.5 -122.5v-256q3 -37 58 -44l-3 -59q-79 0 -119 40q-89 -40 -180 -40q-69 0 -105 39zM327 76l23 8v165l-148 -14q-45 -4 -65 -26t-20 -64
q0 -92 76 -92q67 0 134 23z" />
    <glyph glyph-name="b" unicode="b" horiz-adv-x="526" 
d="M100 -2l-28 3v717h74v-243q78 35 152 35q66 0 104 -25.5t55.5 -81.5t17.5 -150q0 -103 -22 -159t-73.5 -79.5t-145.5 -23.5q-66 0 -134 7zM339 76.5q34 19.5 47 61.5t13 117q0 71 -11 111.5t-36.5 58.5t-70.5 18q-55 0 -135 -29v-352q72 -5 96 -5q63 0 97 19.5z" />
    <glyph glyph-name="c" unicode="c" horiz-adv-x="436" 
d="M133 16.5q-44 26.5 -63 83t-19 150.5q0 119 40 190t155 71q30 0 62 -3t87 -13l-3 -61q-79 9 -121 9q-57 0 -87.5 -17.5t-43 -59t-12.5 -118.5q0 -73 12 -113.5t43.5 -59t91.5 -18.5l118 9l3 -62q-96 -14 -144 -14q-75 0 -119 26.5z" />
    <glyph glyph-name="d" unicode="d" horiz-adv-x="529" 
d="M91 51.5q-41 61.5 -41 189.5q0 143 49.5 206t163.5 63q57 0 119 -13v221h74v-718h-74v34q-77 -44 -155 -44q-95 0 -136 61.5zM304 65.5q34 8.5 58 19.5l20 9v339q-65 12 -113 12q-79 0 -110.5 -46t-31.5 -152q0 -97 25.5 -143.5t88.5 -46.5q29 0 63 8.5z" />
    <glyph glyph-name="e" unicode="e" horiz-adv-x="505" 
d="M97.5 49.5q-47.5 59.5 -47.5 187.5q0 139 51 206t160 67q100 0 149.5 -57.5t49.5 -176.5l-4 -57h-330q0 -62 13.5 -97t46 -50.5t90.5 -15.5q29 0 67 1.5t69 4.5l29 3l2 -59q-111 -16 -184 -16q-114 0 -161.5 59.5zM385 279q0 91 -29 129.5t-95 38.5q-69 0 -102 -40.5
t-34 -127.5h260z" />
    <glyph glyph-name="f" unicode="f" horiz-adv-x="331" 
d="M93 435h-63v65h63v45q0 71 13 110.5t42 56t80 16.5l101 -7l-1 -62q-63 2 -77.5 2.5t-18.5 0.5q-37 0 -50.5 -30t-13.5 -88v-44h145v-65h-145v-435h-75v435z" />
    <glyph glyph-name="g" unicode="g" horiz-adv-x="514" 
d="M96.5 -201.5q-46.5 33.5 -46.5 111.5q0 32 7.5 52.5t23.5 36.5t48 41q-14 9 -21 27t-7 38q0 13 6 28.5t28 54.5q-79 35 -79 150q0 87 47 129.5t142 42.5q46 0 102 -13l148 4v-64l-95 2q17 -17 25 -41.5t8 -62.5q0 -89 -46 -127t-145 -38q-31 0 -51 4q-8 -20 -13 -35
t-5 -26q0 -26 20.5 -34t63.5 -8h39q66 0 106.5 -10t62.5 -40.5t22 -88.5q0 -87 -54 -127t-178 -40q-112 0 -158.5 33.5zM332 255q26 25 26 85q0 59 -26 84t-86 25q-62 0 -88.5 -25.5t-26.5 -84.5t26.5 -84t87.5 -25t87 25zM378 -149.5q33 22.5 33 77.5q0 32 -11 48.5
t-37 22.5t-75 6l-108 5q-33 -24 -44.5 -42t-11.5 -48q0 -52 30.5 -72t107.5 -20q83 0 116 22.5z" />
    <glyph glyph-name="h" unicode="h" horiz-adv-x="537" 
d="M72 718h75v-246q44 20 81.5 29t76.5 9q65 0 100.5 -23.5t50 -76.5t14.5 -146v-264h-75v262q0 74 -8.5 111.5t-32 53.5t-69.5 16q-57 0 -119 -23l-19 -7v-413h-75v718z" />
    <glyph glyph-name="i" unicode="i" horiz-adv-x="218" 
d="M72 0zM72 500h74v-500h-74v500zM72 700h74v-87h-74v87z" />
    <glyph glyph-name="j" unicode="j" horiz-adv-x="219" 
d="M0 0zM-49 -165q54 31 79 53.5t34 49.5t9 75v487h74v-488q0 -63 -14 -101.5t-48.5 -68.5t-103.5 -65zM73 700h74v-87h-74v87z" />
    <glyph glyph-name="k" unicode="k" horiz-adv-x="479" 
d="M72 718h75v-424l78 4l143 202h85l-163 -230l170 -270h-85l-149 232l-79 -3v-229h-75v718z" />
    <glyph glyph-name="l" unicode="l" horiz-adv-x="231" 
d="M78 718h75v-718h-75v718z" />
    <glyph glyph-name="m" unicode="m" horiz-adv-x="836" 
d="M72 500h74v-35q75 45 150 45q41 0 74 -12.5t52 -38.5q37 22 87 36.5t102 14.5q61 0 95 -24.5t48.5 -77.5t14.5 -144v-264h-75v262q0 71 -8 109t-29.5 55t-63.5 17q-34 0 -69 -8.5t-57 -19.5l-19 -9q13 -32 13 -146v-260h-75v258q0 74 -8 112.5t-29 55.5t-63 17
q-33 0 -67 -8.5t-55 -19.5l-17 -9v-406h-75v500z" />
    <glyph glyph-name="n" unicode="n" horiz-adv-x="537" 
d="M72 500h74v-35q45 25 82.5 35t78.5 10q64 0 99 -24t49.5 -76.5t14.5 -145.5v-264h-74v262q0 71 -8.5 109t-30.5 55t-64 17q-34 0 -69.5 -8.5t-57.5 -19.5l-19 -9v-406h-75v500z" />
    <glyph glyph-name="o" unicode="o" horiz-adv-x="528" 
d="M137 16.5q-47 26.5 -67 82.5t-20 148q0 95 21 152.5t68 84t125 26.5q79 0 125.5 -27t67.5 -84t21 -152q0 -92 -20 -148t-66.5 -82.5t-127.5 -26.5q-80 0 -127 26.5zM349 73.5q29 18.5 40.5 59t11.5 114.5q0 78 -12 120t-41 60t-83 18t-83.5 -18t-42 -60t-12.5 -120
q0 -73 11.5 -114t41 -59.5t85.5 -18.5q55 0 84 18.5z" />
    <glyph glyph-name="p" unicode="p" horiz-adv-x="527" 
d="M72 500h74v-36q39 23 75.5 34.5t77.5 11.5q93 0 135.5 -61.5t42.5 -195.5q0 -95 -22 -152.5t-70 -84t-129 -26.5q-56 0 -109 11v-223h-75v722zM368 101q33 46 33 149q0 102 -28.5 147.5t-86.5 45.5q-29 0 -62.5 -9.5t-57.5 -20.5l-19 -10v-337q74 -11 110 -11
q78 0 111 46z" />
    <glyph glyph-name="q" unicode="q" horiz-adv-x="526" 
d="M379 23q-70 -33 -144 -33q-98 0 -141.5 59.5t-43.5 196.5q0 97 22.5 154.5t73.5 83.5t140 26l167 -10v-722h-74v245zM361 79l18 7v353q-61 6 -94 6q-62 0 -96.5 -21t-48.5 -64t-14 -115q0 -102 28 -145t96 -43q55 0 111 22z" />
    <glyph glyph-name="r" unicode="r" horiz-adv-x="346" 
d="M72 500h74v-68q86 59 183 79v-76q-39 -8 -84.5 -24.5t-72.5 -30.5l-25 -13v-367h-75v500z" />
    <glyph glyph-name="s" unicode="s" horiz-adv-x="465" 
d="M82 4l-30 5l4 65q117 -17 172 -17q60 0 89.5 19.5t29.5 62.5q0 31 -14.5 47t-37 23t-63.5 13l-25 4q-60 10 -94 24t-51 39.5t-17 70.5q0 81 49 115t139 34q71 0 145 -13l28 -5l-2 -64q-108 16 -169 16q-58 0 -86.5 -18t-28.5 -56q0 -27 14 -41.5t36.5 -21t63.5 -13.5
l25 -5q62 -11 96 -25.5t50.5 -41.5t16.5 -75q0 -81 -47.5 -118.5t-145.5 -37.5q-60 0 -147 14z" />
    <glyph glyph-name="t" unicode="t" horiz-adv-x="351" 
d="M151.5 5.5q-28.5 16.5 -41 56t-12.5 110.5v263h-71v65h71v153h74v-153h159v-65h-159v-239q0 -56 4 -83.5t19.5 -42t48.5 -14.5l89 6l5 -62q-71 -11 -107 -11q-51 0 -79.5 16.5z" />
    <glyph glyph-name="u" unicode="u" horiz-adv-x="531" 
d="M129.5 13.5q-34.5 23.5 -48.5 76.5t-14 149v261h75v-260q0 -75 8 -113t29 -54t65 -16q68 0 140 37v406h75v-500h-75v35q-41 -24 -76 -34.5t-80 -10.5q-64 0 -98.5 23.5z" />
    <glyph glyph-name="v" unicode="v" horiz-adv-x="481" 
d="M25 500h80l117 -435h37l121 435h77l-141 -500h-150z" />
    <glyph glyph-name="w" unicode="w" horiz-adv-x="762" 
d="M31 500h75l101 -435h16l119 425h78l119 -425h17l100 435h75l-119 -500h-125l-106 391l-106 -391h-125z" />
    <glyph glyph-name="x" unicode="x" horiz-adv-x="452" 
d="M179 250l-157 250h82l122 -196l122 196h82l-159 -248l158 -252h-82l-121 195l-122 -195h-82z" />
    <glyph glyph-name="y" unicode="y" horiz-adv-x="483" 
d="M241 0h-74l-142 500h75l125 -435h33l126 435h75l-208 -722h-75z" />
    <glyph glyph-name="z" unicode="z" horiz-adv-x="455" 
d="M42 67l280 366h-280v67h371v-67l-280 -366h280v-67h-371v67z" />
    <glyph glyph-name="braceleft" unicode="{" horiz-adv-x="352" 
d="M166.5 -83.5q-42.5 40.5 -42.5 130.5l7 122q0 43 -25 69.5t-82 42.5v61q56 13 81.5 39.5t25.5 69.5l-7 128q0 92 42.5 132t144.5 44l1 -65q-64 -4 -89.5 -30.5t-25.5 -84.5l7 -123q0 -44 -9 -69.5t-31.5 -42t-64.5 -28.5q60 -18 82.5 -48.5t22.5 -93.5l-7 -116
q0 -58 25.5 -85.5t89.5 -31.5l-2 -65q-101 4 -143.5 44.5z" />
    <glyph glyph-name="bar" unicode="|" horiz-adv-x="230" 
d="M78 718h74v-940h-74v940z" />
    <glyph glyph-name="braceright" unicode="}" horiz-adv-x="352" 
d="M40 -63q64 4 89.5 31.5t25.5 85.5l-7 116q0 63 22.5 93.5t82.5 48.5q-42 12 -64.5 28.5t-31.5 42t-9 69.5l7 123q0 58 -25.5 84.5t-89.5 30.5l1 65q102 -4 144.5 -44t42.5 -132l-7 -128q0 -43 25.5 -69.5t81.5 -39.5v-61q-57 -16 -82 -42.5t-25 -69.5l7 -122
q0 -90 -42.5 -130.5t-143.5 -44.5z" />
    <glyph glyph-name="asciitilde" unicode="~" 
d="M277 226q-75 31 -94 31q-17 0 -43 -11t-45 -24l-17 -12l-11 62q62 53 116 53q29 0 104 -30q72 -31 93 -31q36 0 88 34l17 12l10 -61q-63 -54 -116 -54q-28 0 -102 31z" />
    <glyph glyph-name="uni00A0" unicode="&#xa0;" horiz-adv-x="220" 
 />
    <glyph glyph-name="exclamdown" unicode="&#xa1;" horiz-adv-x="228" 
d="M154 500v-112h-82v112h82zM147 272l5 -464h-79l5 464h69z" />
    <glyph glyph-name="cent" unicode="&#xa2;" 
d="M278 36q-94 5 -135.5 53t-41.5 157q0 110 43 162t134 57v118h65v-121l101 -12l-3 -60q-74 7 -129 7q-74 0 -103.5 -33.5t-29.5 -115.5q0 -56 12.5 -87t42.5 -44.5t84 -13.5l124 7l3 -61q-64 -10 -102 -11v-119h-65v117z" />
    <glyph glyph-name="sterling" unicode="&#xa3;" 
d="M80 66h85v286h-67v65h67v55q0 78 14.5 120.5t46 60t87.5 17.5q53 0 111 -12l22 -5l-1 -61q-83 11 -126 11q-32 0 -49 -12t-24.5 -41t-7.5 -83v-50h171v-65h-171v-286h154l77 16l13 -64l-82 -18h-320v66z" />
    <glyph glyph-name="currency" unicode="&#xa4;" 
d="M58 83l70 70q-29 46 -29 98q0 53 29 100l-70 70l53 53l70 -71q44 30 98 30t100 -30l70 71l53 -53l-71 -70q30 -46 30 -100t-30 -98l71 -70l-53 -53l-70 71q-46 -30 -100 -30t-98 30l-70 -71zM361 171q34 34 34 81t-34 81t-81 34t-81 -34t-34 -81t34 -81t81 -34t81 34z
" />
    <glyph glyph-name="yen" unicode="&#xa5;" 
d="M243 163h-185v65h185v87h-186v65h140l-174 280h86l172 -270l170 270h86l-171 -280h136v-65h-182v-87h183v-65h-183v-163h-77v163z" />
    <glyph glyph-name="brokenbar" unicode="&#xa6;" horiz-adv-x="234" 
d="M80 718h74v-374h-74v374zM80 156h74v-378h-74v378z" />
    <glyph glyph-name="section" unicode="&#xa7;" horiz-adv-x="499" 
d="M100 -138l-30 5l7 63q110 -15 164 -15q123 0 123 99q0 44 -29 61q-30 16 -117 32q-61 11 -96.5 28t-52.5 45.5t-17 74.5q0 35 19.5 73t38.5 53q-44 32 -44 111q0 159 192 159q54 0 138 -13l26 -4l-4 -63q-110 15 -165 15q-57 0 -85.5 -22.5t-28.5 -69.5q0 -32 13 -50
t43 -29t90 -22q59 -11 92.5 -26.5t49.5 -43t16 -72.5q0 -68 -44 -133q37 -31 37 -100q0 -168 -191 -168q-64 0 -145 12zM358 185.5q9 30.5 9 62.5q0 36 -25 54t-90 30q-61 10 -92 22q-33 -55 -33 -93q0 -39 25 -58t93 -31q71 -14 97 -26q7 9 16 39.5z" />
    <glyph glyph-name="dieresis" unicode="&#xa8;" horiz-adv-x="236" 
d="M-12 711h72v-90h-72v90zM188 711h73v-90h-73v90z" />
    <glyph glyph-name="copyright" unicode="&#xa9;" horiz-adv-x="645" 
d="M188.5 197q-60.5 36 -95 99t-34.5 139t34.5 138t94.5 98t135 36t135 -36.5t94 -99t34 -138.5t-34 -138t-93.5 -98t-134.5 -36t-135.5 36zM433.5 235.5q50.5 30.5 79.5 83t29 115.5t-29 116t-79 83.5t-111 30.5q-94 0 -157 -67t-63 -163q0 -63 28.5 -115.5t79 -83
t111.5 -30.5t111.5 30.5zM235.5 313q-26.5 37 -26.5 121t27 120.5t91 36.5q39 0 67 -7l10 -3l-4 -53q-37 6 -72 6q-34 0 -46 -21.5t-12 -76.5q0 -56 13 -79.5t47 -23.5l70 7l4 -52q-37 -12 -78 -12q-64 0 -90.5 37z" />
    <glyph glyph-name="ordfeminine" unicode="&#xaa;" horiz-adv-x="386" 
d="M77.5 381.5q-23.5 24.5 -23.5 67.5q0 80 96 86l88 6v22q0 21 -12 30.5t-37 9.5l-115 -7l-2 48q69 15 123 15q55 0 81 -22.5t26 -76.5v-137q10 -11 30 -17l-2 -49q-37 0 -53.5 5.5t-29.5 20.5q-57 -26 -101 -26q-45 0 -68.5 24.5zM238 428v67l-77 -5q-22 -2 -31.5 -11
t-9.5 -29q0 -39 36 -39q31 0 82 17z" />
    <glyph glyph-name="guillemotleft" unicode="&#xab;" horiz-adv-x="539" 
d="M45 218v60l189 143v-77l-124 -94l124 -105v-78zM283 218v60l189 143v-77l-124 -94l124 -105v-78z" />
    <glyph glyph-name="logicalnot" unicode="&#xac;" 
d="M423 274h-358v68h428v-225h-70v157z" />
    <glyph glyph-name="registered" unicode="&#xae;" horiz-adv-x="645" 
d="M188.5 197q-60.5 36 -95 99t-34.5 139t34.5 138t94.5 98t135 36t135 -36t94 -98.5t34 -138.5t-34 -138.5t-93.5 -98.5t-134.5 -36t-135.5 36zM434 235.5q50 30.5 79 83t29 115.5t-29 116t-79 83.5t-111 30.5t-111.5 -30.5t-79.5 -83t-29 -115.5t29 -116t79.5 -83.5
t111.5 -30.5t111 30.5zM213 585h110q114 0 114 -88q0 -44 -11.5 -65.5t-39.5 -34.5l55 -115h-61l-50 107h-59v-107h-58v303zM329 436q27 0 39 12t12 39q0 51 -62 51h-48v-102h59z" />
    <glyph glyph-name="macron" unicode="&#xaf;" horiz-adv-x="236" 
d="M-14 683h275v-59h-275v59z" />
    <glyph glyph-name="degree" unicode="&#xb0;" 
d="M177.5 459q-39.5 39 -39.5 102t39.5 102t102.5 39t102.5 -39t39.5 -102t-39.5 -102t-102.5 -39t-102.5 39zM347 493.5q26 25.5 26 67.5q0 41 -26 67t-67 26t-66 -26t-25 -67q0 -42 25 -67.5t66 -25.5t67 25.5z" />
    <glyph glyph-name="plusminus" unicode="&#xb1;" 
d="M244 293h-189v68h189v126h70v-126h191v-68h-191v-127h-70v127zM55 106h450v-68h-450v68z" />
    <glyph glyph-name="uni00B2" unicode="&#xb2;" horiz-adv-x="280" 
d="M30 533l88 87q51 50 51 83q0 37 -49 37l-85 -9l-2 57q58 12 107 12q95 0 95 -91q0 -32 -13.5 -56.5t-47.5 -55.5l-63 -61h128v-58h-209v55z" />
    <glyph glyph-name="uni00B3" unicode="&#xb3;" horiz-adv-x="280" 
d="M30 478l4 56q61 -8 104 -8q46 0 46 43q0 42 -47 42h-65v53h65q15 0 26.5 13t11.5 31q0 34 -45 34l-92 -7l-4 55q56 10 102 10q105 0 105 -84q0 -50 -39 -73q25 -9 36 -26t11 -52q0 -97 -106 -97z" />
    <glyph glyph-name="acute" unicode="&#xb4;" horiz-adv-x="268" 
d="M26 642l216 98l26 -64l-221 -85z" />
    <glyph glyph-name="uni00B5" unicode="&#xb5;" 
d="M84 500h75v-260q0 -76 8 -114t30 -53.5t67 -15.5q30 0 64 9t55 19l18 9v406h75v-500h-75v35q-75 -45 -140 -45t-102 17v-229h-75v722z" />
    <glyph glyph-name="paragraph" unicode="&#xb6;" horiz-adv-x="593" 
d="M228 324h-7q-53 0 -95.5 23t-66.5 65t-24 95t24 95.5t67 66t96 23.5h329v-65h-72v-627h-68v627h-116v-627h-67v324z" />
    <glyph glyph-name="periodcentered" unicode="&#xb7;" horiz-adv-x="217" 
d="M67 343h82v-114h-82v114z" />
    <glyph glyph-name="cedilla" unicode="&#xb8;" horiz-adv-x="263" 
d="M54 -212l-12 2l3 48q39 -3 66 -3q44 0 44 38q0 34 -44 34h-42v94h41v-50q61 0 86 -16.5t25 -61.5q0 -90 -93 -90q-42 0 -74 5z" />
    <glyph glyph-name="uni00B9" unicode="&#xb9;" horiz-adv-x="280" 
d="M129 720l-68 -47l-29 47l101 70h60v-312h-64v242z" />
    <glyph glyph-name="ordmasculine" unicode="&#xba;" horiz-adv-x="380" 
d="M53 510q0 77 34 113t104 36q69 0 102 -36t33 -113q0 -153 -135 -153q-138 0 -138 153zM242.5 439q14.5 21 14.5 71q0 49 -14.5 68.5t-51.5 19.5q-38 0 -53.5 -20t-15.5 -68q0 -49 16 -70.5t53 -21.5t51.5 21z" />
    <glyph glyph-name="guillemotright" unicode="&#xbb;" horiz-adv-x="539" 
d="M67 145l124 105l-124 94v77l189 -143v-60l-189 -151v78zM305 145l124 105l-124 94v77l189 -143v-60l-189 -151v78z" />
    <glyph glyph-name="onequarter" unicode="&#xbc;" 
d="M208 634l-15 -24v-132h-64v29l-314 -504l-39 25l353 569v123l-68 -47l-29 47l101 70h60v-146zM535 6v-58h-27v-48h-63v48h-141v54l69 210h70l-73 -206h75l5 89h58v-89h27z" />
    <glyph glyph-name="onehalf" unicode="&#xbd;" 
d="M208 634l-15 -24v-132h-64v29l-314 -504l-39 25l353 569v123l-68 -47l-29 47l101 70h60v-146zM519 -42v-58h-209v55l88 87q51 50 51 83q0 37 -49 37l-85 -9l-2 57q59 12 107 12q95 0 95 -91q0 -32 -13.5 -56.5t-47.5 -55.5l-63 -61h128z" />
    <glyph glyph-name="threequarters" unicode="&#xbe;" 
d="M0 0zM-224 28l392 632l40 -26l-393 -631zM165 -52h-141v54l69 210h70l-73 -206h75l5 89h58v-89h27v-58h-27v-48h-63v48zM310 478l4 56q61 -8 104 -8q46 0 46 43q0 42 -47 42h-65v53h65q15 0 26.5 13t11.5 31q0 34 -45 34l-92 -7l-4 55q56 10 102 10q105 0 105 -84
q0 -50 -39 -73q25 -9 36 -26t11 -52q0 -97 -106 -97z" />
    <glyph glyph-name="questiondown" unicode="&#xbf;" horiz-adv-x="441" 
d="M294 388h-82v112h82v-112zM296 239q0 -32 -21.5 -61t-75.5 -76q-37 -32 -54 -51.5t-24 -40t-7 -51.5q0 -47 32 -69.5t101 -22.5q43 0 155 23l5 -61q-100 -30 -167 -30q-104 0 -153 38t-49 122q0 45 7 72t25.5 50t55.5 54q55 46 74.5 72t19.5 58v35h63q13 -26 13 -61z" />
    <glyph glyph-name="Agrave" unicode="&#xc0;" horiz-adv-x="596" 
d="M24 0zM163 865l26 66l216 -100l-23 -53zM446 178h-296l-50 -178h-76l190 692h168l190 -692h-76zM167 247h262l-105 379h-52z" />
    <glyph glyph-name="Aacute" unicode="&#xc1;" horiz-adv-x="596" 
d="M24 0zM446 178h-296l-50 -178h-76l190 692h168l190 -692h-76zM167 247h262l-105 379h-52zM186 831l216 100l26 -66l-219 -87z" />
    <glyph glyph-name="Acircumflex" unicode="&#xc2;" horiz-adv-x="596" 
d="M24 0zM446 178h-296l-50 -178h-76l190 692h168l190 -692h-76zM167 247h262l-105 379h-52zM264 926h65l134 -135h-84l-82 80l-83 -80h-84z" />
    <glyph glyph-name="Atilde" unicode="&#xc3;" horiz-adv-x="596" 
d="M24 0zM446 178h-296l-50 -178h-76l190 692h168l190 -692h-76zM167 247h262l-105 379h-52zM291 830q-62 27 -75 27q-22 0 -61 -36l-13 -12l-17 56q21 24 46.5 41t47.5 17t84 -27q61 -27 71 -27q20 0 58 35l12 11l18 -56q-47 -56 -88 -56q-22 0 -83 27z" />
    <glyph glyph-name="Adieresis" unicode="&#xc4;" horiz-adv-x="596" 
d="M24 0zM446 178h-296l-50 -178h-76l190 692h168l190 -692h-76zM167 247h262l-105 379h-52zM159 898h73v-90h-73v90zM363 898h72v-90h-72v90z" />
    <glyph glyph-name="Aring" unicode="&#xc5;" horiz-adv-x="596" 
d="M446 178h-296l-50 -178h-76l184 669q-30 28 -30 75q0 49 33 77t86 28t85.5 -28t32.5 -77q0 -44 -27 -73l184 -671h-76zM235 744q0 -20 11 -34t31 -18h40q20 4 31 18t11 34q0 25 -16.5 39t-45.5 14q-62 0 -62 -53zM167 247h262l-105 379h-52z" />
    <glyph glyph-name="AE" unicode="&#xc6;" horiz-adv-x="876" 
d="M244 696h585v-73h-345v-230h285v-73h-285v-247h345v-73h-421v175h-251l-58 -175h-79zM408 249l1 374h-109l-122 -374h230z" />
    <glyph glyph-name="Ccedilla" unicode="&#xc7;" horiz-adv-x="544" 
d="M322 -10v-39q61 0 86 -16.5t25 -61.5q0 -90 -93 -90q-42 0 -74 5l-12 2l3 48q39 -3 66 -3q44 0 44 38q0 34 -44 34h-42v85q-89 7 -137.5 49t-66.5 115.5t-18 189.5q0 124 21 200.5t76.5 116t159.5 39.5q81 0 187 -22l-3 -65q-101 18 -174 18q-78 0 -118 -28t-54.5 -90
t-14.5 -180q0 -102 13.5 -159.5t55.5 -87t127 -29.5q69 0 165 18l3 -66q-103 -21 -181 -21z" />
    <glyph glyph-name="Egrave" unicode="&#xc8;" horiz-adv-x="553" 
d="M85 0zM162 624v-239h284v-67h-284v-250h344v-68h-421v692h421v-68h-344zM169 865l26 66l216 -100l-23 -53z" />
    <glyph glyph-name="Eacute" unicode="&#xc9;" horiz-adv-x="553" 
d="M85 0zM162 624v-239h284v-67h-284v-250h344v-68h-421v692h421v-68h-344zM176 831l216 100l26 -66l-219 -87z" />
    <glyph glyph-name="Ecircumflex" unicode="&#xca;" horiz-adv-x="553" 
d="M85 0zM162 624v-239h284v-67h-284v-250h344v-68h-421v692h421v-68h-344zM261 926h65l134 -135h-84l-82 80l-83 -80h-84z" />
    <glyph glyph-name="Edieresis" unicode="&#xcb;" horiz-adv-x="553" 
d="M85 0zM162 624v-239h284v-67h-284v-250h344v-68h-421v692h421v-68h-344zM157 898h73v-90h-73v90zM361 898h72v-90h-72v90z" />
    <glyph glyph-name="Igrave" unicode="&#xcc;" horiz-adv-x="246" 
d="M0 0zM85 692h77v-692h-77v692zM-20 865l26 66l216 -100l-23 -53z" />
    <glyph glyph-name="Iacute" unicode="&#xcd;" horiz-adv-x="246" 
d="M12 0zM85 692h77v-692h-77v692zM12 831l216 100l26 -66l-219 -87z" />
    <glyph glyph-name="Icircumflex" unicode="&#xce;" horiz-adv-x="246" 
d="M0 0zM85 692h77v-692h-77v692zM87 926h65l134 -135h-84l-82 80l-83 -80h-84z" />
    <glyph glyph-name="Idieresis" unicode="&#xcf;" horiz-adv-x="246" 
d="M0 0zM85 692h77v-692h-77v692zM-15 898h73v-90h-73v90zM189 898h72v-90h-72v90z" />
    <glyph glyph-name="Eth" unicode="&#xd0;" horiz-adv-x="647" 
d="M88 311h-68v73h68v312h247q136 0 196 -84.5t60 -252.5q0 -184 -64 -271.5t-192 -87.5h-247v311zM335 73q176 0 176 286q0 137 -43.5 200.5t-132.5 63.5h-171v-239h158v-73h-158v-238h171z" />
    <glyph glyph-name="Ntilde" unicode="&#xd1;" horiz-adv-x="676" 
d="M85 0zM591 692v-692h-141l-269 624h-19v-624h-77v692h144l266 -624h20v624h76zM333 830q-62 27 -75 27q-22 0 -61 -36l-13 -12l-17 56q21 24 46.5 41t47.5 17t84 -27q61 -27 71 -27q20 0 58 35l12 11l18 -56q-47 -56 -88 -56q-22 0 -83 27z" />
    <glyph glyph-name="Ograve" unicode="&#xd2;" horiz-adv-x="660" 
d="M57 0zM168 27q-60 37 -85.5 113.5t-25.5 202.5q0 125 26 203.5t86 117t161 38.5t161 -38.5t86.5 -117t26.5 -205.5t-25.5 -203t-85 -112t-162.5 -36t-163 37zM448.5 86q41.5 28 58.5 88.5t17 166.5t-17.5 169t-59.5 93.5t-117 30.5t-117 -30t-59.5 -93t-17.5 -168
t17 -166.5t59.5 -90t118.5 -28.5t117.5 28zM201 865l26 66l216 -100l-23 -53z" />
    <glyph glyph-name="Oacute" unicode="&#xd3;" horiz-adv-x="660" 
d="M57 0zM168 27q-60 37 -85.5 113.5t-25.5 202.5q0 125 26 203.5t86 117t161 38.5t161 -38.5t86.5 -117t26.5 -205.5t-25.5 -203t-85 -112t-162.5 -36t-163 37zM448.5 86q41.5 28 58.5 88.5t17 166.5t-17.5 169t-59.5 93.5t-117 30.5t-117 -30t-59.5 -93t-17.5 -168
t17 -166.5t59.5 -90t118.5 -28.5t117.5 28zM198 831l216 100l26 -66l-219 -87z" />
    <glyph glyph-name="Ocircumflex" unicode="&#xd4;" horiz-adv-x="660" 
d="M57 0zM168 27q-60 37 -85.5 113.5t-25.5 202.5q0 125 26 203.5t86 117t161 38.5t161 -38.5t86.5 -117t26.5 -205.5t-25.5 -203t-85 -112t-162.5 -36t-163 37zM448.5 86q41.5 28 58.5 88.5t17 166.5t-17.5 169t-59.5 93.5t-117 30.5t-117 -30t-59.5 -93t-17.5 -168
t17 -166.5t59.5 -90t118.5 -28.5t117.5 28zM298 926h65l134 -135h-84l-82 80l-83 -80h-84z" />
    <glyph glyph-name="Otilde" unicode="&#xd5;" horiz-adv-x="660" 
d="M57 0zM168 27q-60 37 -85.5 113.5t-25.5 202.5q0 125 26 203.5t86 117t161 38.5t161 -38.5t86.5 -117t26.5 -205.5t-25.5 -203t-85 -112t-162.5 -36t-163 37zM448.5 86q41.5 28 58.5 88.5t17 166.5t-17.5 169t-59.5 93.5t-117 30.5t-117 -30t-59.5 -93t-17.5 -168
t17 -166.5t59.5 -90t118.5 -28.5t117.5 28zM325 830q-62 27 -75 27q-22 0 -61 -36l-13 -12l-17 56q21 24 46.5 41t47.5 17t84 -27q61 -27 71 -27q20 0 58 35l12 11l18 -56q-47 -56 -88 -56q-22 0 -83 27z" />
    <glyph glyph-name="Odieresis" unicode="&#xd6;" horiz-adv-x="660" 
d="M57 0zM168 27q-60 37 -85.5 113.5t-25.5 202.5q0 125 26 203.5t86 117t161 38.5t161 -38.5t86.5 -117t26.5 -205.5t-25.5 -203t-85 -112t-162.5 -36t-163 37zM448.5 86q41.5 28 58.5 88.5t17 166.5t-17.5 169t-59.5 93.5t-117 30.5t-117 -30t-59.5 -93t-17.5 -168
t17 -166.5t59.5 -90t118.5 -28.5t117.5 28zM192 898h73v-90h-73v90zM396 898h72v-90h-72v90z" />
    <glyph glyph-name="multiply" unicode="&#xd7;" 
d="M292 254l157 -157l-48 -48l-157 157l-157 -157l-48 48l157 157l-157 157l48 48l157 -157l157 157l48 -48z" />
    <glyph glyph-name="Oslash" unicode="&#xd8;" horiz-adv-x="660" 
d="M96 -90l59 126q-52 39 -75 113t-23 194q0 125 26 203.5t86 117t161 38.5q75 0 126 -21l56 118l58 -24l-59 -127q93 -78 93 -305q0 -128 -25.5 -204.5t-85 -112.5t-163.5 -36q-67 0 -120 17l-57 -123zM426 615q-37 19 -96 19q-76 0 -117.5 -30t-59 -95t-17.5 -178
q0 -165 52 -223zM448.5 86q41.5 28 58.5 90t17 173q0 161 -48 225l-235 -502q36 -14 89 -14q77 0 118.5 28z" />
    <glyph glyph-name="Ugrave" unicode="&#xd9;" horiz-adv-x="644" 
d="M80 0zM139.5 42.5q-59.5 52.5 -59.5 167.5v482h77v-484q0 -150 162 -150q85 0 127 36t42 114v484h76v-482q0 -114 -60.5 -167t-182.5 -53t-181.5 52.5zM196 865l26 66l216 -100l-23 -53z" />
    <glyph glyph-name="Uacute" unicode="&#xda;" horiz-adv-x="644" 
d="M80 0zM139.5 42.5q-59.5 52.5 -59.5 167.5v482h77v-484q0 -150 162 -150q85 0 127 36t42 114v484h76v-482q0 -114 -60.5 -167t-182.5 -53t-181.5 52.5zM199 831l216 100l26 -66l-219 -87z" />
    <glyph glyph-name="Ucircumflex" unicode="&#xdb;" horiz-adv-x="644" 
d="M80 0zM139.5 42.5q-59.5 52.5 -59.5 167.5v482h77v-484q0 -150 162 -150q85 0 127 36t42 114v484h76v-482q0 -114 -60.5 -167t-182.5 -53t-181.5 52.5zM289 926h65l134 -135h-84l-82 80l-83 -80h-84z" />
    <glyph glyph-name="Udieresis" unicode="&#xdc;" horiz-adv-x="644" 
d="M80 0zM139.5 42.5q-59.5 52.5 -59.5 167.5v482h77v-484q0 -150 162 -150q85 0 127 36t42 114v484h76v-482q0 -114 -60.5 -167t-182.5 -53t-181.5 52.5zM184 898h73v-90h-73v90zM388 898h72v-90h-72v90z" />
    <glyph glyph-name="Yacute" unicode="&#xdd;" horiz-adv-x="538" 
d="M10 0zM231 291l-221 401h87l172 -324l172 324h87l-220 -401v-291h-77v291zM167 831l216 100l26 -66l-219 -87z" />
    <glyph glyph-name="Thorn" unicode="&#xde;" horiz-adv-x="599" 
d="M85 696h77v-112h176q113 0 167.5 -55t54.5 -169q0 -116 -56 -177.5t-166 -61.5h-176v-121h-77v696zM337 195q144 0 144 166q0 78 -34.5 113.5t-109.5 35.5h-175v-315h175z" />
    <glyph glyph-name="germandbls" unicode="&#xdf;" horiz-adv-x="574" 
d="M228 1l-21 4l3 63q90 -11 122 -11q69 0 99 25.5t30 76.5q0 33 -8.5 52t-30.5 34t-68 37q-65 31 -88 55t-23 62q0 36 17.5 56.5t58.5 38.5q39 17 52 35.5t13 57.5t-26 56.5t-91 17.5q-46 0 -71.5 -11t-37 -38t-11.5 -76v-536h-75v545q0 100 45 141.5t150 41.5
q104 0 149.5 -34t45.5 -110q0 -52 -18.5 -80.5t-59.5 -46.5q-36 -16 -49.5 -25.5t-13.5 -25.5q0 -10 2.5 -15t12.5 -11.5t28 -16.5q7 -4 20.5 -11t34.5 -20q68 -34 94 -66t26 -89q0 -69 -19.5 -109.5t-63.5 -59t-118 -18.5q-47 0 -110 11z" />
    <glyph glyph-name="agrave" unicode="&#xe0;" horiz-adv-x="501" 
d="M40 0zM76 29q-36 39 -36 112q0 72 36.5 107t116.5 43l157 15v43q0 95 -82 95q-81 0 -197 -13l-3 57q107 22 195 22q85 0 123.5 -38.5t38.5 -122.5v-256q3 -37 58 -44l-3 -59q-79 0 -119 40q-89 -40 -180 -40q-69 0 -105 39zM327 76l23 8v165l-148 -14q-45 -4 -65 -26
t-20 -64q0 -92 76 -92q67 0 134 23zM121 676l26 64l216 -98l-21 -51z" />
    <glyph glyph-name="aacute" unicode="&#xe1;" horiz-adv-x="501" 
d="M40 0zM76 29q-36 39 -36 112q0 72 36.5 107t116.5 43l157 15v43q0 95 -82 95q-81 0 -197 -13l-3 57q107 22 195 22q85 0 123.5 -38.5t38.5 -122.5v-256q3 -37 58 -44l-3 -59q-79 0 -119 40q-89 -40 -180 -40q-69 0 -105 39zM327 76l23 8v165l-148 -14q-45 -4 -65 -26
t-20 -64q0 -92 76 -92q67 0 134 23zM118 642l216 98l26 -64l-221 -85z" />
    <glyph glyph-name="acircumflex" unicode="&#xe2;" horiz-adv-x="501" 
d="M40 0zM76 29q-36 39 -36 112q0 72 36.5 107t116.5 43l157 15v43q0 95 -82 95q-81 0 -197 -13l-3 57q107 22 195 22q85 0 123.5 -38.5t38.5 -122.5v-256q3 -37 58 -44l-3 -59q-79 0 -119 40q-89 -40 -180 -40q-69 0 -105 39zM327 76l23 8v165l-148 -14q-45 -4 -65 -26
t-20 -64q0 -92 76 -92q67 0 134 23zM218 732h51l124 -140h-75l-73 87l-75 -87h-75z" />
    <glyph glyph-name="atilde" unicode="&#xe3;" horiz-adv-x="501" 
d="M40 0zM76 29q-36 39 -36 112q0 72 36.5 107t116.5 43l157 15v43q0 95 -82 95q-81 0 -197 -13l-3 57q107 22 195 22q85 0 123.5 -38.5t38.5 -122.5v-256q3 -37 58 -44l-3 -59q-79 0 -119 40q-89 -40 -180 -40q-69 0 -105 39zM327 76l23 8v165l-148 -14q-45 -4 -65 -26
t-20 -64q0 -92 76 -92q67 0 134 23zM235 636q-54 23 -65 23q-23 0 -62 -30l-13 -10l-18 48q49 52 91 52q19 0 73 -23t64 -23q20 0 58 29l13 9l17 -48q-47 -51 -86 -51q-21 0 -72 24z" />
    <glyph glyph-name="adieresis" unicode="&#xe4;" horiz-adv-x="501" 
d="M40 0zM76 29q-36 39 -36 112q0 72 36.5 107t116.5 43l157 15v43q0 95 -82 95q-81 0 -197 -13l-3 57q107 22 195 22q85 0 123.5 -38.5t38.5 -122.5v-256q3 -37 58 -44l-3 -59q-79 0 -119 40q-89 -40 -180 -40q-69 0 -105 39zM327 76l23 8v165l-148 -14q-45 -4 -65 -26
t-20 -64q0 -92 76 -92q67 0 134 23zM105 711h72v-90h-72v90zM305 711h73v-90h-73v90z" />
    <glyph glyph-name="aring" unicode="&#xe5;" horiz-adv-x="501" 
d="M40 0zM76 29q-36 39 -36 112q0 72 36.5 107t116.5 43l157 15v43q0 95 -82 95q-81 0 -197 -13l-3 57q107 22 195 22q85 0 123.5 -38.5t38.5 -122.5v-256q3 -37 58 -44l-3 -59q-79 0 -119 40q-89 -40 -180 -40q-69 0 -105 39zM327 76l23 8v165l-148 -14q-45 -4 -65 -26
t-20 -64q0 -92 76 -92q67 0 134 23zM183 571.5q-29 30.5 -29 74.5q0 43 29 73t72 30t72 -30t29 -73q0 -44 -29 -74.5t-72 -30.5t-72 30.5zM294 605.5q16 16.5 16 40.5q0 23 -16 39.5t-39 16.5t-39 -16.5t-16 -39.5q0 -24 16 -40.5t39 -16.5t39 16.5z" />
    <glyph glyph-name="ae" unicode="&#xe6;" horiz-adv-x="804" 
d="M74.5 29.5q-34.5 39.5 -34.5 116.5q0 52 17.5 81.5t56.5 44.5t107 22l129 12v41q0 91 -87 91q-60 0 -159 -8l-31 -2l-3 67q119 15 197 15q102 0 135 -73q48 73 153 73t154.5 -57t49.5 -177l-4 -58h-330q0 -81 30 -120.5t92 -39.5q68 0 163 7l29 2l2 -61
q-109 -16 -203 -16q-90 0 -138 54l-32 -14q-86 -40 -192 -40q-67 0 -101.5 39.5zM684 279q0 89 -29 126.5t-96 37.5q-68 0 -101 -39.5t-33 -124.5h259zM278.5 68q49.5 13 69.5 24v153l-146 -12q-44 -4 -64.5 -25t-20.5 -63q0 -90 71 -90q41 0 90.5 13z" />
    <glyph glyph-name="ccedilla" unicode="&#xe7;" horiz-adv-x="436" 
d="M335 -65.5q25 -16.5 25 -61.5q0 -90 -93 -90q-42 0 -74 5l-12 2l3 48q39 -3 66 -3q44 0 44 38q0 34 -44 34h-42v86q-86 10 -121.5 70.5t-35.5 186.5q0 119 40 190t155 71q30 0 62 -3t87 -13l-3 -61q-79 9 -121 9q-57 0 -87.5 -17.5t-43 -59t-12.5 -118.5q0 -73 12 -113.5
t43.5 -59t91.5 -18.5l118 9l3 -62q-96 -14 -144 -14h-3v-39q61 0 86 -16.5z" />
    <glyph glyph-name="egrave" unicode="&#xe8;" horiz-adv-x="505" 
d="M50 0zM97.5 49.5q-47.5 59.5 -47.5 187.5q0 139 51 206t160 67q100 0 149.5 -57.5t49.5 -176.5l-4 -57h-330q0 -62 13.5 -97t46 -50.5t90.5 -15.5q29 0 67 1.5t69 4.5l29 3l2 -59q-111 -16 -184 -16q-114 0 -161.5 59.5zM385 279q0 91 -29 129.5t-95 38.5
q-69 0 -102 -40.5t-34 -127.5h260zM121 676l26 64l216 -98l-21 -51z" />
    <glyph glyph-name="eacute" unicode="&#xe9;" horiz-adv-x="505" 
d="M50 0zM97.5 49.5q-47.5 59.5 -47.5 187.5q0 139 51 206t160 67q100 0 149.5 -57.5t49.5 -176.5l-4 -57h-330q0 -62 13.5 -97t46 -50.5t90.5 -15.5q29 0 67 1.5t69 4.5l29 3l2 -59q-111 -16 -184 -16q-114 0 -161.5 59.5zM385 279q0 91 -29 129.5t-95 38.5
q-69 0 -102 -40.5t-34 -127.5h260zM145 642l216 98l26 -64l-221 -85z" />
    <glyph glyph-name="ecircumflex" unicode="&#xea;" horiz-adv-x="505" 
d="M50 0zM97.5 49.5q-47.5 59.5 -47.5 187.5q0 139 51 206t160 67q100 0 149.5 -57.5t49.5 -176.5l-4 -57h-330q0 -62 13.5 -97t46 -50.5t90.5 -15.5q29 0 67 1.5t69 4.5l29 3l2 -59q-111 -16 -184 -16q-114 0 -161.5 59.5zM385 279q0 91 -29 129.5t-95 38.5
q-69 0 -102 -40.5t-34 -127.5h260zM235 732h51l124 -140h-75l-73 87l-75 -87h-75z" />
    <glyph glyph-name="edieresis" unicode="&#xeb;" horiz-adv-x="505" 
d="M50 0zM97.5 49.5q-47.5 59.5 -47.5 187.5q0 139 51 206t160 67q100 0 149.5 -57.5t49.5 -176.5l-4 -57h-330q0 -62 13.5 -97t46 -50.5t90.5 -15.5q29 0 67 1.5t69 4.5l29 3l2 -59q-111 -16 -184 -16q-114 0 -161.5 59.5zM385 279q0 91 -29 129.5t-95 38.5
q-69 0 -102 -40.5t-34 -127.5h260zM120 711h72v-90h-72v90zM320 711h73v-90h-73v90z" />
    <glyph glyph-name="igrave" unicode="&#xec;" horiz-adv-x="218" 
d="M0 0zM72 500h74v-500h-74v500zM-60 676l26 64l216 -98l-21 -51z" />
    <glyph glyph-name="iacute" unicode="&#xed;" horiz-adv-x="218" 
d="M38 0zM72 500h74v-500h-74v500zM38 642l216 98l26 -64l-221 -85z" />
    <glyph glyph-name="icircumflex" unicode="&#xee;" horiz-adv-x="218" 
d="M0 0zM72 500h74v-500h-74v500zM81 732h51l124 -140h-75l-73 87l-75 -87h-75z" />
    <glyph glyph-name="idieresis" unicode="&#xef;" horiz-adv-x="218" 
d="M0 0zM72 500h74v-500h-74v500zM-31 711h72v-90h-72v90zM169 711h73v-90h-73v90z" />
    <glyph glyph-name="eth" unicode="&#xf0;" horiz-adv-x="548" 
d="M100 48.5q-58 57.5 -58 161.5t55 162t155 58q65 0 140 -27l25 -9q-8 131 -137 207l-122 -81l-33 47l95 64q-58 24 -124 41l15 56q99 -19 173 -54l101 68l34 -47l-77 -52q154 -97 154 -291q0 -130 -23.5 -209t-74 -115.5t-133.5 -36.5q-107 0 -165 57.5zM355 84.5
q32 25.5 47.5 84t15.5 158.5q-90 36 -158 36q-67 0 -103 -41t-36 -112q0 -72 37.5 -111.5t112.5 -39.5q52 0 84 25.5z" />
    <glyph glyph-name="ntilde" unicode="&#xf1;" horiz-adv-x="537" 
d="M72 0zM72 500h74v-35q45 25 82.5 35t78.5 10q64 0 99 -24t49.5 -76.5t14.5 -145.5v-264h-74v262q0 71 -8.5 109t-30.5 55t-64 17q-34 0 -69.5 -8.5t-57.5 -19.5l-19 -9v-406h-75v500zM277 636q-54 23 -65 23q-23 0 -62 -30l-13 -10l-18 48q49 52 91 52q19 0 73 -23
t64 -23q20 0 58 29l13 9l17 -48q-47 -51 -86 -51q-21 0 -72 24z" />
    <glyph glyph-name="ograve" unicode="&#xf2;" horiz-adv-x="528" 
d="M50 0zM137 16.5q-47 26.5 -67 82.5t-20 148q0 95 21 152.5t68 84t125 26.5q79 0 125.5 -27t67.5 -84t21 -152q0 -92 -20 -148t-66.5 -82.5t-127.5 -26.5q-80 0 -127 26.5zM349 73.5q29 18.5 40.5 59t11.5 114.5q0 78 -12 120t-41 60t-83 18t-83.5 -18t-42 -60t-12.5 -120
q0 -73 11.5 -114t41 -59.5t85.5 -18.5q55 0 84 18.5zM141 676l26 64l216 -98l-21 -51z" />
    <glyph glyph-name="oacute" unicode="&#xf3;" horiz-adv-x="528" 
d="M50 0zM137 16.5q-47 26.5 -67 82.5t-20 148q0 95 21 152.5t68 84t125 26.5q79 0 125.5 -27t67.5 -84t21 -152q0 -92 -20 -148t-66.5 -82.5t-127.5 -26.5q-80 0 -127 26.5zM349 73.5q29 18.5 40.5 59t11.5 114.5q0 78 -12 120t-41 60t-83 18t-83.5 -18t-42 -60t-12.5 -120
q0 -73 11.5 -114t41 -59.5t85.5 -18.5q55 0 84 18.5zM154 642l216 98l26 -64l-221 -85z" />
    <glyph glyph-name="ocircumflex" unicode="&#xf4;" horiz-adv-x="528" 
d="M50 0zM137 16.5q-47 26.5 -67 82.5t-20 148q0 95 21 152.5t68 84t125 26.5q79 0 125.5 -27t67.5 -84t21 -152q0 -92 -20 -148t-66.5 -82.5t-127.5 -26.5q-80 0 -127 26.5zM349 73.5q29 18.5 40.5 59t11.5 114.5q0 78 -12 120t-41 60t-83 18t-83.5 -18t-42 -60t-12.5 -120
q0 -73 11.5 -114t41 -59.5t85.5 -18.5q55 0 84 18.5zM236 732h51l124 -140h-75l-73 87l-75 -87h-75z" />
    <glyph glyph-name="otilde" unicode="&#xf5;" horiz-adv-x="528" 
d="M50 0zM137 16.5q-47 26.5 -67 82.5t-20 148q0 95 21 152.5t68 84t125 26.5q79 0 125.5 -27t67.5 -84t21 -152q0 -92 -20 -148t-66.5 -82.5t-127.5 -26.5q-80 0 -127 26.5zM349 73.5q29 18.5 40.5 59t11.5 114.5q0 78 -12 120t-41 60t-83 18t-83.5 -18t-42 -60t-12.5 -120
q0 -73 11.5 -114t41 -59.5t85.5 -18.5q55 0 84 18.5zM263 636q-54 23 -65 23q-23 0 -62 -30l-13 -10l-18 48q49 52 91 52q19 0 73 -23t64 -23q20 0 58 29l13 9l17 -48q-47 -51 -86 -51q-21 0 -72 24z" />
    <glyph glyph-name="odieresis" unicode="&#xf6;" horiz-adv-x="528" 
d="M50 0zM137 16.5q-47 26.5 -67 82.5t-20 148q0 95 21 152.5t68 84t125 26.5q79 0 125.5 -27t67.5 -84t21 -152q0 -92 -20 -148t-66.5 -82.5t-127.5 -26.5q-80 0 -127 26.5zM349 73.5q29 18.5 40.5 59t11.5 114.5q0 78 -12 120t-41 60t-83 18t-83.5 -18t-42 -60t-12.5 -120
q0 -73 11.5 -114t41 -59.5t85.5 -18.5q55 0 84 18.5zM125 711h72v-90h-72v90zM325 711h73v-90h-73v90z" />
    <glyph glyph-name="divide" unicode="&#xf7;" 
d="M242 605h75v-101h-75v101zM120 354h319v-73h-319v73zM242 131h75v-101h-75v101z" />
    <glyph glyph-name="oslash" unicode="&#xf8;" horiz-adv-x="528" 
d="M95 -94l44 109q-48 27 -68.5 84t-20.5 157q0 134 49.5 194t164.5 60q37 0 74 -8l43 104l50 -19l-43 -104q90 -49 90 -227q0 -97 -20 -154.5t-66.5 -84.5t-127.5 -27q-39 0 -76 8l-43 -110zM314 439l-50 6q-76 0 -106.5 -40t-30.5 -132q0 -80 7.5 -125.5t34.5 -67.5z
M350 73.5q29 18.5 40 61.5t11 126q0 118 -42 156l-146 -357q20 -5 51 -5q57 0 86 18.5z" />
    <glyph glyph-name="ugrave" unicode="&#xf9;" horiz-adv-x="531" 
d="M67 0zM129.5 13.5q-34.5 23.5 -48.5 76.5t-14 149v261h75v-260q0 -75 8 -113t29 -54t65 -16q68 0 140 37v406h75v-500h-75v35q-41 -24 -76 -34.5t-80 -10.5q-64 0 -98.5 23.5zM114 676l26 64l216 -98l-21 -51z" />
    <glyph glyph-name="uacute" unicode="&#xfa;" horiz-adv-x="531" 
d="M67 0zM129.5 13.5q-34.5 23.5 -48.5 76.5t-14 149v261h75v-260q0 -75 8 -113t29 -54t65 -16q68 0 140 37v406h75v-500h-75v35q-41 -24 -76 -34.5t-80 -10.5q-64 0 -98.5 23.5zM155 642l216 98l26 -64l-221 -85z" />
    <glyph glyph-name="ucircumflex" unicode="&#xfb;" horiz-adv-x="531" 
d="M67 0zM129.5 13.5q-34.5 23.5 -48.5 76.5t-14 149v261h75v-260q0 -75 8 -113t29 -54t65 -16q68 0 140 37v406h75v-500h-75v35q-41 -24 -76 -34.5t-80 -10.5q-64 0 -98.5 23.5zM228 732h51l124 -140h-75l-73 87l-75 -87h-75z" />
    <glyph glyph-name="udieresis" unicode="&#xfc;" horiz-adv-x="531" 
d="M67 0zM129.5 13.5q-34.5 23.5 -48.5 76.5t-14 149v261h75v-260q0 -75 8 -113t29 -54t65 -16q68 0 140 37v406h75v-500h-75v35q-41 -24 -76 -34.5t-80 -10.5q-64 0 -98.5 23.5zM132 711h72v-90h-72v90zM332 711h73v-90h-73v90z" />
    <glyph glyph-name="yacute" unicode="&#xfd;" horiz-adv-x="483" 
d="M25 0zM241 0h-74l-142 500h75l125 -435h33l126 435h75l-208 -722h-75zM154 642l216 98l26 -64l-221 -85z" />
    <glyph glyph-name="thorn" unicode="&#xfe;" horiz-adv-x="527" 
d="M72 718h75v-243q76 35 146 35q68 0 108 -25t57.5 -80.5t17.5 -152.5q0 -98 -21.5 -154.5t-70.5 -82t-136 -25.5l-101 7v-219h-75v940zM339.5 74.5q33.5 19.5 46.5 61.5t13 116q0 71 -10.5 112.5t-35 60t-67.5 18.5q-60 0 -120 -22l-19 -7v-353q65 -6 97 -6
q62 0 95.5 19.5z" />
    <glyph glyph-name="ydieresis" unicode="&#xff;" horiz-adv-x="483" 
d="M25 0zM241 0h-74l-142 500h75l125 -435h33l126 435h75l-208 -722h-75zM104 711h72v-90h-72v90zM304 711h73v-90h-73v90z" />
    <glyph glyph-name="Amacron" unicode="&#x100;" horiz-adv-x="596" 
d="M24 0zM446 178h-296l-50 -178h-76l190 692h168l190 -692h-76zM167 247h262l-105 379h-52zM141 870h311v-58h-311v58z" />
    <glyph glyph-name="amacron" unicode="&#x101;" horiz-adv-x="501" 
d="M40 0zM76 29q-36 39 -36 112q0 72 36.5 107t116.5 43l157 15v43q0 95 -82 95q-81 0 -197 -13l-3 57q107 22 195 22q85 0 123.5 -38.5t38.5 -122.5v-256q3 -37 58 -44l-3 -59q-79 0 -119 40q-89 -40 -180 -40q-69 0 -105 39zM327 76l23 8v165l-148 -14q-45 -4 -65 -26
t-20 -64q0 -92 76 -92q67 0 134 23zM112 683h275v-59h-275v59z" />
    <glyph glyph-name="Abreve" unicode="&#x102;" horiz-adv-x="596" 
d="M24 0zM446 178h-296l-50 -178h-76l190 692h168l190 -692h-76zM167 247h262l-105 379h-52zM184.5 823q-42.5 36 -45.5 95h69q1 -33 26.5 -54t62.5 -21q36 0 61 21t26 54h70q-3 -59 -46 -95t-112 -36t-111.5 36z" />
    <glyph glyph-name="abreve" unicode="&#x103;" horiz-adv-x="503" 
d="M138 630q-43 39 -46 103h77q2 -35 24 -55t60 -20t60 20.5t23 54.5h77q-3 -64 -46 -103t-114 -39q-72 0 -115 39zM75.5 30q-35.5 40 -35.5 112q0 71 37 106.5t116 42.5l157 15v41q0 91 -87 91q-77 0 -191 -13l-3 65l32 5q96 15 166 15q81 0 119.5 -39.5t38.5 -123.5v-246
q1 -38 57 -46l-2 -65q-81 0 -119 38l-25 -10q-29 -10 -75 -19t-85 -9q-65 0 -100.5 40zM350 85v160l-148 -12q-85 -7 -85 -88q0 -43 18.5 -66.5t52.5 -23.5q75 0 162 30z" />
    <glyph glyph-name="Aogonek" unicode="&#x104;" horiz-adv-x="596" 
d="M592 -197q-45 -9 -82 -9t-63 23.5t-26 56.5q0 30 19 62t43 54l13 11l-50 177h-296l-50 -178h-76l190 692h168l190 -692h-8q-70 -70 -70 -102q0 -19 11.5 -31t29.5 -12l50 6zM167 247h262l-105 379h-52z" />
    <glyph glyph-name="aogonek" unicode="&#x105;" horiz-adv-x="501" 
d="M476 -139l7 -58q-45 -9 -82 -9t-63 23.5t-26 56.5q0 30 19 62t43 54l20 17q-19 9 -33 23q-89 -40 -180 -40q-69 0 -105 39t-36 112q0 72 36.5 107t116.5 43l157 15v43q0 95 -82 95q-81 0 -197 -13l-3 57q107 22 195 22q85 0 123.5 -38.5t38.5 -122.5v-256q3 -37 58 -44
l-3 -59q-13 0 -33 2q-62 -64 -62 -94q0 -19 11.5 -31t29.5 -12zM350 249l-148 -14q-45 -4 -65 -26t-20 -64q0 -92 76 -92q67 0 134 23l23 8v165z" />
    <glyph glyph-name="Cacute" unicode="&#x106;" horiz-adv-x="544" 
d="M59 0zM158 29.5q-57 39.5 -78 115.5t-21 201q0 124 21 200.5t76.5 116t159.5 39.5q81 0 187 -22l-3 -65q-101 18 -174 18q-78 0 -118 -28t-54.5 -90t-14.5 -180q0 -102 13.5 -159.5t55.5 -87t127 -29.5q69 0 165 18l3 -66q-103 -21 -182 -21q-106 0 -163 39.5zM181 831
l216 100l26 -66l-219 -87z" />
    <glyph glyph-name="cacute" unicode="&#x107;" horiz-adv-x="436" 
d="M51 0zM133 16.5q-44 26.5 -63 83t-19 150.5q0 119 40 190t155 71q30 0 62 -3t87 -13l-3 -61q-79 9 -121 9q-57 0 -87.5 -17.5t-43 -59t-12.5 -118.5q0 -73 12 -113.5t43.5 -59t91.5 -18.5l118 9l3 -62q-96 -14 -144 -14q-75 0 -119 26.5zM126 642l216 98l26 -64l-221 -85
z" />
    <glyph glyph-name="Ccircumflex" unicode="&#x108;" horiz-adv-x="544" 
d="M59 0zM158 29.5q-57 39.5 -78 115.5t-21 201q0 124 21 200.5t76.5 116t159.5 39.5q81 0 187 -22l-3 -65q-101 18 -174 18q-78 0 -118 -28t-54.5 -90t-14.5 -180q0 -102 13.5 -159.5t55.5 -87t127 -29.5q69 0 165 18l3 -66q-103 -21 -182 -21q-106 0 -163 39.5zM278 926
h65l134 -135h-84l-82 80l-83 -80h-84z" />
    <glyph glyph-name="ccircumflex" unicode="&#x109;" horiz-adv-x="436" 
d="M51 0zM133 16.5q-44 26.5 -63 83t-19 150.5q0 119 40 190t155 71q30 0 62 -3t87 -13l-3 -61q-79 9 -121 9q-57 0 -87.5 -17.5t-43 -59t-12.5 -118.5q0 -73 12 -113.5t43.5 -59t91.5 -18.5l118 9l3 -62q-96 -14 -144 -14q-75 0 -119 26.5zM206 732h51l124 -140h-75l-73 87
l-75 -87h-75z" />
    <glyph glyph-name="Cdotaccent" unicode="&#x10a;" horiz-adv-x="544" 
d="M59 0zM158 29.5q-57 39.5 -78 115.5t-21 201q0 124 21 200.5t76.5 116t159.5 39.5q81 0 187 -22l-3 -65q-101 18 -174 18q-78 0 -118 -28t-54.5 -90t-14.5 -180q0 -102 13.5 -159.5t55.5 -87t127 -29.5q69 0 165 18l3 -66q-103 -21 -182 -21q-106 0 -163 39.5zM255 888
h74v-87h-74v87z" />
    <glyph glyph-name="cdotaccent" unicode="&#x10b;" horiz-adv-x="436" 
d="M51 0zM133 16.5q-44 26.5 -63 83t-19 150.5q0 119 40 190t155 71q30 0 62 -3t87 -13l-3 -61q-79 9 -121 9q-57 0 -87.5 -17.5t-43 -59t-12.5 -118.5q0 -73 12 -113.5t43.5 -59t91.5 -18.5l118 9l3 -62q-96 -14 -144 -14q-75 0 -119 26.5zM214 696h74v-87h-74v87z" />
    <glyph glyph-name="Ccaron" unicode="&#x10c;" horiz-adv-x="544" 
d="M59 0zM158 29.5q-57 39.5 -78 115.5t-21 201q0 124 21 200.5t76.5 116t159.5 39.5q81 0 187 -22l-3 -65q-101 18 -174 18q-78 0 -118 -28t-54.5 -90t-14.5 -180q0 -102 13.5 -159.5t55.5 -87t127 -29.5q69 0 165 18l3 -66q-103 -21 -182 -21q-106 0 -163 39.5zM137 926
h84l83 -80l82 80h84l-134 -135h-65z" />
    <glyph glyph-name="ccaron" unicode="&#x10d;" horiz-adv-x="436" 
d="M51 0zM133 16.5q-44 26.5 -63 83t-19 150.5q0 119 40 190t155 71q30 0 62 -3t87 -13l-3 -61q-79 9 -121 9q-57 0 -87.5 -17.5t-43 -59t-12.5 -118.5q0 -73 12 -113.5t43.5 -59t91.5 -18.5l118 9l3 -62q-96 -14 -144 -14q-75 0 -119 26.5zM166 732l75 -87l73 87h75
l-124 -140h-51l-123 140h75z" />
    <glyph glyph-name="Dcaron" unicode="&#x10e;" horiz-adv-x="645" 
d="M85 0zM493.5 646q56.5 -46 75.5 -117t19 -166q0 -190 -62.5 -276.5t-193.5 -86.5h-247v692h247q105 0 161.5 -46zM509 356q0 140 -43 204t-134 64h-170v-556h170q177 0 177 288zM128 926h84l83 -80l82 80h84l-134 -135h-65z" />
    <glyph glyph-name="dcaron" unicode="&#x10f;" horiz-adv-x="529" 
d="M50 0zM91 51.5q-41 61.5 -41 189.5q0 143 49.5 206t163.5 63q57 0 119 -13v221h74v-718h-74v34q-77 -44 -155 -44q-95 0 -136 61.5zM304 65.5q34 8.5 58 19.5l20 9v339q-65 12 -113 12q-79 0 -110.5 -46t-31.5 -152q0 -97 25.5 -143.5t88.5 -46.5q29 0 63 8.5zM558 683
h74l-50 -207h-65z" />
    <glyph glyph-name="Dcroat" unicode="&#x110;" horiz-adv-x="647" 
d="M88 311h-68v73h68v312h247q136 0 196 -84.5t60 -252.5q0 -184 -64 -271.5t-192 -87.5h-247v311zM335 73q176 0 176 286q0 137 -43.5 200.5t-132.5 63.5h-171v-239h158v-73h-158v-238h171z" />
    <glyph glyph-name="dcroat" unicode="&#x111;" horiz-adv-x="529" 
d="M91.5 51q-41.5 61 -41.5 185q0 146 48.5 210t160.5 64q61 0 123 -13v125h-194v66h194v30h74v-30h23v-66h-23v-622h-74v34q-77 -44 -152 -44q-97 0 -138.5 61zM304 66q35 9 58 19l20 9v339q-65 12 -119 12q-74 0 -105 -47.5t-31 -151.5q0 -97 26 -143t90 -46q26 0 61 9z
" />
    <glyph glyph-name="Emacron" unicode="&#x112;" horiz-adv-x="553" 
d="M85 0zM162 624v-239h284v-67h-284v-250h344v-68h-421v692h421v-68h-344zM138 870h311v-58h-311v58z" />
    <glyph glyph-name="emacron" unicode="&#x113;" horiz-adv-x="505" 
d="M50 0zM97.5 49.5q-47.5 59.5 -47.5 187.5q0 139 51 206t160 67q100 0 149.5 -57.5t49.5 -176.5l-4 -57h-330q0 -62 13.5 -97t46 -50.5t90.5 -15.5q29 0 67 1.5t69 4.5l29 3l2 -59q-111 -16 -184 -16q-114 0 -161.5 59.5zM385 279q0 91 -29 129.5t-95 38.5
q-69 0 -102 -40.5t-34 -127.5h260zM123 683h275v-59h-275v59z" />
    <glyph glyph-name="Ebreve" unicode="&#x114;" horiz-adv-x="553" 
d="M85 0zM162 624v-239h284v-67h-284v-250h344v-68h-421v692h421v-68h-344zM192.5 823q-42.5 36 -45.5 95h69q1 -33 26.5 -54t62.5 -21q36 0 61 21t26 54h70q-3 -59 -46 -95t-112 -36t-111.5 36z" />
    <glyph glyph-name="ebreve" unicode="&#x115;" horiz-adv-x="505" 
d="M50 0zM151.5 625.5q-40.5 39.5 -43.5 100.5h61q2 -39 25.5 -61.5t62.5 -22.5t62 23t24 61h62q-3 -61 -43.5 -100.5t-104.5 -39.5q-65 0 -105.5 39.5zM97.5 49.5q-47.5 59.5 -47.5 187.5q0 139 51 206t160 67q100 0 149.5 -57.5t49.5 -176.5l-4 -57h-330q0 -62 13.5 -97
t46 -50.5t90.5 -15.5q29 0 67 1.5t69 4.5l29 3l2 -59q-111 -16 -184 -16q-114 0 -161.5 59.5zM385 279q0 91 -29 129.5t-95 38.5q-69 0 -102 -40.5t-34 -127.5h260z" />
    <glyph glyph-name="Edotaccent" unicode="&#x116;" horiz-adv-x="553" 
d="M85 0zM162 624v-239h284v-67h-284v-250h344v-68h-421v692h421v-68h-344zM260 888h74v-87h-74v87z" />
    <glyph glyph-name="edotaccent" unicode="&#x117;" horiz-adv-x="505" 
d="M50 0zM97.5 49.5q-47.5 59.5 -47.5 187.5q0 139 51 206t160 67q100 0 149.5 -57.5t49.5 -176.5l-4 -57h-330q0 -62 13.5 -97t46 -50.5t90.5 -15.5q29 0 67 1.5t69 4.5l29 3l2 -59q-111 -16 -184 -16q-114 0 -161.5 59.5zM385 279q0 91 -29 129.5t-95 38.5
q-69 0 -102 -40.5t-34 -127.5h260zM217 696h74v-87h-74v87z" />
    <glyph glyph-name="Eogonek" unicode="&#x118;" horiz-adv-x="553" 
d="M162 624v-239h284v-67h-284v-250h344v-68h-29q-70 -70 -70 -102q0 -19 11.5 -31t29.5 -12l50 6l7 -58q-45 -9 -82 -9t-63 23.5t-26 56.5q0 30 19 62t43 54l12 10h-323v692h421v-68h-344z" />
    <glyph glyph-name="eogonek" unicode="&#x119;" horiz-adv-x="505" 
d="M456 219h-330q0 -62 13.5 -97t46 -50.5t90.5 -15.5q29 0 67 1.5t69 4.5l29 3l2 -59l-33 -5h4q-71 -71 -71 -103q0 -19 11.5 -31t29.5 -12l50 6l7 -58q-45 -9 -82 -9t-63 23.5t-26 56.5q0 30 19 62t43 54l4 4q-41 -4 -77 -4q-114 0 -161.5 59.5t-47.5 187.5q0 139 51 206
t160 67q100 0 149.5 -57.5t49.5 -176.5zM385 279q0 91 -29 129.5t-95 38.5q-69 0 -102 -40.5t-34 -127.5h260z" />
    <glyph glyph-name="Ecaron" unicode="&#x11a;" horiz-adv-x="553" 
d="M85 0zM162 624v-239h284v-67h-284v-250h344v-68h-421v692h421v-68h-344zM124 926h84l83 -80l82 80h84l-134 -135h-65z" />
    <glyph glyph-name="ecaron" unicode="&#x11b;" horiz-adv-x="505" 
d="M50 0zM97.5 49.5q-47.5 59.5 -47.5 187.5q0 139 51 206t160 67q100 0 149.5 -57.5t49.5 -176.5l-4 -57h-330q0 -62 13.5 -97t46 -50.5t90.5 -15.5q29 0 67 1.5t69 4.5l29 3l2 -59q-111 -16 -184 -16q-114 0 -161.5 59.5zM385 279q0 91 -29 129.5t-95 38.5
q-69 0 -102 -40.5t-34 -127.5h260zM179 732l75 -87l73 87h75l-124 -140h-51l-123 140h75z" />
    <glyph glyph-name="Gcircumflex" unicode="&#x11c;" horiz-adv-x="616" 
d="M57 0zM166.5 28q-58.5 38 -84 115.5t-25.5 202.5q0 124 25.5 202t83.5 116t157 38q90 0 193 -20l34 -6l-3 -64q-124 21 -215 21q-76 0 -118.5 -28.5t-59.5 -90t-17 -168.5t17 -168.5t59 -90.5t118 -29q67 0 143 14v213h-115v69h191v-340q-126 -24 -225 -24
q-100 0 -158.5 38zM290 926h65l134 -135h-84l-82 80l-83 -80h-84z" />
    <glyph glyph-name="gcircumflex" unicode="&#x11d;" horiz-adv-x="514" 
d="M50 0zM96.5 -201.5q-46.5 33.5 -46.5 111.5q0 32 7.5 52.5t23.5 36.5t48 41q-14 9 -21 27t-7 38q0 13 6 28.5t28 54.5q-79 35 -79 150q0 87 47 129.5t142 42.5q46 0 102 -13l148 4v-64l-95 2q17 -17 25 -41.5t8 -62.5q0 -89 -46 -127t-145 -38q-31 0 -51 4
q-8 -20 -13 -35t-5 -26q0 -26 20.5 -34t63.5 -8h39q66 0 106.5 -10t62.5 -40.5t22 -88.5q0 -87 -54 -127t-178 -40q-112 0 -158.5 33.5zM332 255q26 25 26 85q0 59 -26 84t-86 25q-62 0 -88.5 -25.5t-26.5 -84.5t26.5 -84t87.5 -25t87 25zM378 -149.5q33 22.5 33 77.5
q0 32 -11 48.5t-37 22.5t-75 6l-108 5q-33 -24 -44.5 -42t-11.5 -48q0 -52 30.5 -72t107.5 -20q83 0 116 22.5zM236 732h51l124 -140h-75l-73 87l-75 -87h-75z" />
    <glyph glyph-name="Gbreve" unicode="&#x11e;" horiz-adv-x="616" 
d="M57 0zM166.5 28q-58.5 38 -84 115.5t-25.5 202.5q0 124 25.5 202t83.5 116t157 38q90 0 193 -20l34 -6l-3 -64q-124 21 -215 21q-76 0 -118.5 -28.5t-59.5 -90t-17 -168.5t17 -168.5t59 -90.5t118 -29q67 0 143 14v213h-115v69h191v-340q-126 -24 -225 -24
q-100 0 -158.5 38zM216.5 823q-42.5 36 -45.5 95h69q1 -33 26.5 -54t62.5 -21q36 0 61 21t26 54h70q-3 -59 -46 -95t-112 -36t-111.5 36z" />
    <glyph glyph-name="gbreve" unicode="&#x11f;" horiz-adv-x="514" 
d="M50 0zM96.5 -201.5q-46.5 33.5 -46.5 111.5q0 32 7.5 52.5t23.5 36.5t48 41q-14 9 -21 27t-7 38q0 13 6 28.5t28 54.5q-79 35 -79 150q0 87 47 129.5t142 42.5q46 0 102 -13l148 4v-64l-95 2q17 -17 25 -41.5t8 -62.5q0 -89 -46 -127t-145 -38q-31 0 -51 4
q-8 -20 -13 -35t-5 -26q0 -26 20.5 -34t63.5 -8h39q66 0 106.5 -10t62.5 -40.5t22 -88.5q0 -87 -54 -127t-178 -40q-112 0 -158.5 33.5zM332 255q26 25 26 85q0 59 -26 84t-86 25q-62 0 -88.5 -25.5t-26.5 -84.5t26.5 -84t87.5 -25t87 25zM378 -149.5q33 22.5 33 77.5
q0 32 -11 48.5t-37 22.5t-75 6l-108 5q-33 -24 -44.5 -42t-11.5 -48q0 -52 30.5 -72t107.5 -20q83 0 116 22.5zM156.5 625.5q-40.5 39.5 -43.5 100.5h61q2 -39 25.5 -61.5t62.5 -22.5t62 23t24 61h62q-3 -61 -43.5 -100.5t-104.5 -39.5q-65 0 -105.5 39.5z" />
    <glyph glyph-name="Gdotaccent" unicode="&#x120;" horiz-adv-x="616" 
d="M57 0zM166.5 28q-58.5 38 -84 115.5t-25.5 202.5q0 124 25.5 202t83.5 116t157 38q90 0 193 -20l34 -6l-3 -64q-124 21 -215 21q-76 0 -118.5 -28.5t-59.5 -90t-17 -168.5t17 -168.5t59 -90.5t118 -29q67 0 143 14v213h-115v69h191v-340q-126 -24 -225 -24
q-100 0 -158.5 38zM276 888h74v-87h-74v87z" />
    <glyph glyph-name="gdotaccent" unicode="&#x121;" horiz-adv-x="514" 
d="M50 0zM96.5 -201.5q-46.5 33.5 -46.5 111.5q0 32 7.5 52.5t23.5 36.5t48 41q-14 9 -21 27t-7 38q0 13 6 28.5t28 54.5q-79 35 -79 150q0 87 47 129.5t142 42.5q46 0 102 -13l148 4v-64l-95 2q17 -17 25 -41.5t8 -62.5q0 -89 -46 -127t-145 -38q-31 0 -51 4
q-8 -20 -13 -35t-5 -26q0 -26 20.5 -34t63.5 -8h39q66 0 106.5 -10t62.5 -40.5t22 -88.5q0 -87 -54 -127t-178 -40q-112 0 -158.5 33.5zM332 255q26 25 26 85q0 59 -26 84t-86 25q-62 0 -88.5 -25.5t-26.5 -84.5t26.5 -84t87.5 -25t87 25zM378 -149.5q33 22.5 33 77.5
q0 32 -11 48.5t-37 22.5t-75 6l-108 5q-33 -24 -44.5 -42t-11.5 -48q0 -52 30.5 -72t107.5 -20q83 0 116 22.5zM224 696h74v-87h-74v87z" />
    <glyph glyph-name="Gcommaaccent" unicode="&#x122;" horiz-adv-x="616" 
d="M57 0zM166.5 28q-58.5 38 -84 115.5t-25.5 202.5q0 124 25.5 202t83.5 116t157 38q90 0 193 -20l34 -6l-3 -64q-124 21 -215 21q-76 0 -118.5 -28.5t-59.5 -90t-17 -168.5t17 -168.5t59 -90.5t118 -29q67 0 143 14v213h-115v69h191v-340q-126 -24 -225 -24
q-100 0 -158.5 38zM301 -78h74l-50 -207h-65z" />
    <glyph glyph-name="gcommaaccent" unicode="&#x123;" horiz-adv-x="514" 
d="M266 589h-74l50 207h65zM96.5 -201.5q-46.5 33.5 -46.5 111.5q0 32 7.5 52.5t23.5 36.5t48 41q-14 9 -21 27t-7 38q0 13 6 28.5t28 54.5q-79 35 -79 150q0 87 47 129.5t142 42.5q46 0 102 -13l148 4v-64l-95 2q17 -17 25 -41.5t8 -62.5q0 -89 -46 -127t-145 -38
q-31 0 -51 4q-8 -20 -13 -35t-5 -26q0 -26 20.5 -34t63.5 -8h39q66 0 106.5 -10t62.5 -40.5t22 -88.5q0 -87 -54 -127t-178 -40q-112 0 -158.5 33.5zM332 255q26 25 26 85q0 59 -26 84t-86 25q-62 0 -88.5 -25.5t-26.5 -84.5t26.5 -84t87.5 -25t87 25zM378 -149.5
q33 22.5 33 77.5q0 32 -11 48.5t-37 22.5t-75 6l-108 5q-33 -24 -44.5 -42t-11.5 -48q0 -52 30.5 -72t107.5 -20q83 0 116 22.5z" />
    <glyph glyph-name="Hcircumflex" unicode="&#x124;" horiz-adv-x="675" 
d="M85 0zM590 692v-692h-76v313h-352v-313h-77v692h77v-310h352v310h76zM306 926h65l134 -135h-84l-82 80l-83 -80h-84z" />
    <glyph glyph-name="hcircumflex" unicode="&#x125;" horiz-adv-x="537" 
d="M72 0zM72 718h75v-246q44 20 81.5 29t76.5 9q65 0 100.5 -23.5t50 -76.5t14.5 -146v-264h-75v262q0 74 -8.5 111.5t-32 53.5t-69.5 16q-57 0 -119 -23l-19 -7v-413h-75v718zM241 914h51l124 -140h-75l-73 87l-75 -87h-75z" />
    <glyph glyph-name="Hbar" unicode="&#x126;" horiz-adv-x="686" 
d="M89 508h-74v65h74v119h77v-119h352v119h76v-119h83v-65h-83v-508h-76v313h-352v-313h-77v508zM518 382v126h-352v-126h352z" />
    <glyph glyph-name="hbar" unicode="&#x127;" horiz-adv-x="537" 
d="M72 580h-62v66h62v72h75v-72h154v-66h-154v-108q81 38 154 38q67 0 103 -23t51 -75.5t15 -147.5v-264h-75v262q0 73 -8.5 111t-31.5 54t-67 16q-62 0 -122 -23l-19 -7v-413h-75v580z" />
    <glyph glyph-name="Itilde" unicode="&#x128;" horiz-adv-x="246" 
d="M0 0zM85 692h77v-692h-77v692zM116 830q-62 27 -75 27q-22 0 -61 -36l-13 -12l-17 56q21 24 46.5 41t47.5 17t84 -27q61 -27 71 -27q20 0 58 35l12 11l18 -56q-47 -56 -88 -56q-22 0 -83 27z" />
    <glyph glyph-name="itilde" unicode="&#x129;" horiz-adv-x="218" 
d="M0 0zM72 500h74v-500h-74v500zM111 636q-54 23 -65 23q-23 0 -62 -30l-13 -10l-18 48q49 52 91 52q19 0 73 -23t64 -23q20 0 58 29l13 9l17 -48q-47 -51 -86 -51q-21 0 -72 24z" />
    <glyph glyph-name="Imacron" unicode="&#x12a;" horiz-adv-x="246" 
d="M0 0zM85 692h77v-692h-77v692zM-30 870h311v-58h-311v58z" />
    <glyph glyph-name="imacron" unicode="&#x12b;" horiz-adv-x="218" 
d="M0 0zM72 500h74v-500h-74v500zM-28 683h275v-59h-275v59z" />
    <glyph glyph-name="Ibreve" unicode="&#x12c;" horiz-adv-x="246" 
d="M0 0zM85 692h77v-692h-77v692zM19.5 823q-42.5 36 -45.5 95h69q1 -33 26.5 -54t62.5 -21q36 0 61 21t26 54h70q-3 -59 -46 -95t-112 -36t-111.5 36z" />
    <glyph glyph-name="ibreve" unicode="&#x12d;" horiz-adv-x="218" 
d="M0 0zM72 500h74v-500h-74v500zM4.5 625.5q-40.5 39.5 -43.5 100.5h61q2 -39 25.5 -61.5t62.5 -22.5t62 23t24 61h62q-3 -61 -43.5 -100.5t-104.5 -39.5q-65 0 -105.5 39.5z" />
    <glyph glyph-name="Iogonek" unicode="&#x12e;" horiz-adv-x="246" 
d="M185 -197q-45 -9 -82 -9t-63 23.5t-26 56.5q0 30 19 62t43 54l12 10h-3v692h77v-692h-5q-70 -70 -70 -102q0 -19 11.5 -31t29.5 -12l50 6z" />
    <glyph glyph-name="iogonek" unicode="&#x12f;" horiz-adv-x="218" 
d="M146 613h-74v87h74v-87zM170 -197q-45 -9 -82 -9t-63 23.5t-26 56.5q0 30 19 62t43 54l12 10h-1v500h74v-500h-4q-70 -70 -70 -102q0 -19 11.5 -31t29.5 -12l50 6z" />
    <glyph glyph-name="Idotaccent" unicode="&#x130;" horiz-adv-x="246" 
d="M85 0zM85 692h77v-692h-77v692zM86 888h74v-87h-74v87z" />
    <glyph glyph-name="dotlessi" unicode="&#x131;" horiz-adv-x="218" 
d="M72 500h74v-500h-74v500z" />
    <glyph glyph-name="Jcircumflex" unicode="&#x134;" horiz-adv-x="289" 
d="M2 0zM18 -3q52 0 74 7t30.5 29t8.5 73v586h76l1 -597q0 -76 -21.5 -112t-59.5 -45.5t-109 -9.5v69zM136 923h65l134 -135h-84l-82 80l-83 -80h-84z" />
    <glyph glyph-name="jcircumflex" unicode="&#x135;" horiz-adv-x="219" 
d="M0 0zM-49 -165q54 31 79 53.5t34 49.5t9 75v487h74v-488q0 -63 -14 -101.5t-48.5 -68.5t-103.5 -65zM82 732h51l124 -140h-75l-73 87l-75 -87h-75z" />
    <glyph glyph-name="Kcommaaccent" unicode="&#x136;" horiz-adv-x="569" 
d="M85 0zM277 306l-115 -4v-302h-77v692h77v-322l114 4l177 318h88l-198 -348l209 -344h-91zM264 -78h74l-50 -207h-65z" />
    <glyph glyph-name="kcommaaccent" unicode="&#x137;" horiz-adv-x="479" 
d="M72 0zM72 718h75v-424l78 4l143 202h85l-163 -230l170 -270h-85l-149 232l-79 -3v-229h-75v718zM141 -78h74l-50 -207h-65z" />
    <glyph glyph-name="Lacute" unicode="&#x139;" horiz-adv-x="479" 
d="M85 0zM466 69v-69h-381v692h77v-623h304zM134 831l216 100l26 -66l-219 -87z" />
    <glyph glyph-name="lacute" unicode="&#x13a;" horiz-adv-x="231" 
d="M52 0zM78 718h75v-718h-75v718zM52 846l216 98l26 -64l-221 -85z" />
    <glyph glyph-name="Lcommaaccent" unicode="&#x13b;" horiz-adv-x="479" 
d="M85 0zM466 69v-69h-381v692h77v-623h304zM241 -78h74l-50 -207h-65z" />
    <glyph glyph-name="lcommaaccent" unicode="&#x13c;" horiz-adv-x="231" 
d="M33 0zM78 718h75v-718h-75v718zM74 -78h74l-50 -207h-65z" />
    <glyph glyph-name="Lcaron" unicode="&#x13d;" horiz-adv-x="494" 
d="M439 462h-73v234h73v-234zM466 69v-69h-381v692h77v-623h304z" />
    <glyph glyph-name="lcaron" unicode="&#x13e;" horiz-adv-x="231" 
d="M78 0zM78 718h75v-718h-75v718zM255 683h74l-50 -207h-65z" />
    <glyph glyph-name="Lslash" unicode="&#x141;" horiz-adv-x="483" 
d="M90 272l-57 -40l-37 52l94 66v342h77v-288l142 99l37 -51l-179 -126v-257h304v-69h-381v272z" />
    <glyph glyph-name="lslash" unicode="&#x142;" horiz-adv-x="310" 
d="M114 279l-67 -47l-37 52l104 73v361h75v-309l74 52l37 -52l-111 -78v-331h-75v279z" />
    <glyph glyph-name="Nacute" unicode="&#x143;" horiz-adv-x="676" 
d="M85 0zM591 692v-692h-141l-269 624h-19v-624h-77v692h144l266 -624h20v624h76zM220 831l216 100l26 -66l-219 -87z" />
    <glyph glyph-name="nacute" unicode="&#x144;" horiz-adv-x="537" 
d="M72 0zM72 500h74v-35q45 25 82.5 35t78.5 10q64 0 99 -24t49.5 -76.5t14.5 -145.5v-264h-74v262q0 71 -8.5 109t-30.5 55t-64 17q-34 0 -69.5 -8.5t-57.5 -19.5l-19 -9v-406h-75v500zM160 642l216 98l26 -64l-221 -85z" />
    <glyph glyph-name="Ncommaaccent" unicode="&#x145;" horiz-adv-x="676" 
d="M85 0zM591 692v-692h-141l-269 624h-19v-624h-77v692h144l266 -624h20v624h76zM324 -78h74l-50 -207h-65z" />
    <glyph glyph-name="ncommaaccent" unicode="&#x146;" horiz-adv-x="537" 
d="M72 0zM72 500h74v-35q45 25 82.5 35t78.5 10q64 0 99 -24t49.5 -76.5t14.5 -145.5v-264h-74v262q0 71 -8.5 109t-30.5 55t-64 17q-34 0 -69.5 -8.5t-57.5 -19.5l-19 -9v-406h-75v500zM168 -78h74l-50 -207h-65z" />
    <glyph glyph-name="Ncaron" unicode="&#x147;" horiz-adv-x="676" 
d="M85 0zM591 692v-692h-141l-269 624h-19v-624h-77v692h144l266 -624h20v624h76zM172 923h84l83 -80l82 80h84l-134 -135h-65z" />
    <glyph glyph-name="ncaron" unicode="&#x148;" horiz-adv-x="537" 
d="M72 0zM72 500h74v-35q45 25 82.5 35t78.5 10q64 0 99 -24t49.5 -76.5t14.5 -145.5v-264h-74v262q0 71 -8.5 109t-30.5 55t-64 17q-34 0 -69.5 -8.5t-57.5 -19.5l-19 -9v-406h-75v500zM194 732l75 -87l73 87h75l-124 -140h-51l-123 140h75z" />
    <glyph glyph-name="Eng" unicode="&#x14a;" horiz-adv-x="676" 
d="M402 -120q52 0 74 7t30.5 29t8.5 73v11h-65l-269 624h-19v-624h-77v692h144l265 -624h21v624h76l1 -714q0 -57 -11 -90.5t-36.5 -50.5t-71.5 -23q-27 -3 -71 -3v69z" />
    <glyph glyph-name="eng" unicode="&#x14b;" horiz-adv-x="538" 
d="M278 -174q52 30 76 51.5t33 47.5t9 71v263q0 70 -8.5 108.5t-31 56.5t-64.5 18q-28 0 -64 -8.5t-60 -19.5l-22 -9v-405h-74v500h74v-33q86 43 158 43q64 0 100 -25t51.5 -78.5t15.5 -146.5v-262q0 -64 -13 -102t-46.5 -67.5t-101.5 -65.5z" />
    <glyph glyph-name="Omacron" unicode="&#x14c;" horiz-adv-x="660" 
d="M57 0zM168 27q-60 37 -85.5 113.5t-25.5 202.5q0 125 26 203.5t86 117t161 38.5t161 -38.5t86.5 -117t26.5 -205.5t-25.5 -203t-85 -112t-162.5 -36t-163 37zM448.5 86q41.5 28 58.5 88.5t17 166.5t-17.5 169t-59.5 93.5t-117 30.5t-117 -30t-59.5 -93t-17.5 -168
t17 -166.5t59.5 -90t118.5 -28.5t117.5 28zM174 870h311v-58h-311v58z" />
    <glyph glyph-name="omacron" unicode="&#x14d;" horiz-adv-x="528" 
d="M50 0zM137 16.5q-47 26.5 -67 82.5t-20 148q0 95 21 152.5t68 84t125 26.5q79 0 125.5 -27t67.5 -84t21 -152q0 -92 -20 -148t-66.5 -82.5t-127.5 -26.5q-80 0 -127 26.5zM349 73.5q29 18.5 40.5 59t11.5 114.5q0 78 -12 120t-41 60t-83 18t-83.5 -18t-42 -60t-12.5 -120
q0 -73 11.5 -114t41 -59.5t85.5 -18.5q55 0 84 18.5zM128 695h275v-59h-275v59z" />
    <glyph glyph-name="Obreve" unicode="&#x14e;" horiz-adv-x="660" 
d="M57 0zM168 27q-60 37 -85.5 113.5t-25.5 202.5q0 125 26 203.5t86 117t161 38.5t161 -38.5t86.5 -117t26.5 -205.5t-25.5 -203t-85 -112t-162.5 -36t-163 37zM448.5 86q41.5 28 58.5 88.5t17 166.5t-17.5 169t-59.5 93.5t-117 30.5t-117 -30t-59.5 -93t-17.5 -168
t17 -166.5t59.5 -90t118.5 -28.5t117.5 28zM219.5 823q-42.5 36 -45.5 95h69q1 -33 26.5 -54t62.5 -21q36 0 61 21t26 54h70q-3 -59 -46 -95t-112 -36t-111.5 36z" />
    <glyph glyph-name="obreve" unicode="&#x14f;" horiz-adv-x="528" 
d="M50 0zM137 16.5q-47 26.5 -67 82.5t-20 148q0 95 21 152.5t68 84t125 26.5q79 0 125.5 -27t67.5 -84t21 -152q0 -92 -20 -148t-66.5 -82.5t-127.5 -26.5q-80 0 -127 26.5zM349 73.5q29 18.5 40.5 59t11.5 114.5q0 78 -12 120t-41 60t-83 18t-83.5 -18t-42 -60t-12.5 -120
q0 -73 11.5 -114t41 -59.5t85.5 -18.5q55 0 84 18.5zM161.5 625.5q-40.5 39.5 -43.5 100.5h61q2 -39 25.5 -61.5t62.5 -22.5t62 23t24 61h62q-3 -61 -43.5 -100.5t-104.5 -39.5q-65 0 -105.5 39.5z" />
    <glyph glyph-name="Ohungarumlaut" unicode="&#x150;" horiz-adv-x="660" 
d="M57 0zM168 27q-60 37 -85.5 113.5t-25.5 202.5q0 125 26 203.5t86 117t161 38.5t161 -38.5t86.5 -117t26.5 -205.5t-25.5 -203t-85 -112t-162.5 -36t-163 37zM448.5 86q41.5 28 58.5 88.5t17 166.5t-17.5 169t-59.5 93.5t-117 30.5t-117 -30t-59.5 -93t-17.5 -168
t17 -166.5t59.5 -90t118.5 -28.5t117.5 28zM151 785l142 132l54 -35l-145 -129zM348 785l142 131l55 -35l-146 -129z" />
    <glyph glyph-name="ohungarumlaut" unicode="&#x151;" horiz-adv-x="528" 
d="M50 0zM137 16.5q-47 26.5 -67 82.5t-20 148q0 95 21 152.5t68 84t125 26.5q79 0 125.5 -27t67.5 -84t21 -152q0 -92 -20 -148t-66.5 -82.5t-127.5 -26.5q-80 0 -127 26.5zM349 73.5q29 18.5 40.5 59t11.5 114.5q0 78 -12 120t-41 60t-83 18t-83.5 -18t-42 -60t-12.5 -120
q0 -73 11.5 -114t41 -59.5t85.5 -18.5q55 0 84 18.5zM286 624l145 139l54 -43l-148 -138zM93 624l145 138l54 -42l-147 -138z" />
    <glyph glyph-name="OE" unicode="&#x152;" horiz-adv-x="925" 
d="M162.5 27q-57.5 37 -81.5 114t-24 206q0 128 25 206t83 115.5t157 37.5q82 0 141 -10h415v-74h-339v-229h279v-74h-279v-245h339v-75h-413q-92 -9 -143 -9q-102 0 -159.5 37zM463 72v550q-105 9 -133 9q-76 0 -117.5 -28t-58.5 -89t-17 -167q0 -107 16.5 -167t58.5 -87.5
t120 -27.5q57 0 131 7z" />
    <glyph glyph-name="oe" unicode="&#x153;" horiz-adv-x="857" 
d="M136.5 17q-46.5 27 -66.5 83.5t-20 151.5q0 93 21.5 149t68.5 82.5t125 26.5q69 0 111 -24.5t65 -80.5q45 105 170 105q102 0 151.5 -57t49.5 -177l-4 -58h-330q0 -82 30 -121t92 -39q69 0 163 7l29 2l2 -61q-109 -16 -194 -16q-119 0 -162 91q-22 -48 -63 -69.5
t-110 -21.5q-82 0 -128.5 27zM737 279q0 89 -29.5 126.5t-96.5 37.5q-134 0 -134 -164h260zM349.5 76.5q29.5 19.5 40.5 60.5t11 114q0 104 -31.5 147.5t-107.5 43.5q-52 0 -81 -17.5t-41.5 -58t-12.5 -112.5q0 -75 11.5 -117t41 -61t85.5 -19q55 0 84.5 19.5z" />
    <glyph glyph-name="Racute" unicode="&#x154;" horiz-adv-x="616" 
d="M85 0zM85 692h256q111 0 166 -51.5t55 -158.5q0 -161 -127 -201l133 -281h-85l-125 265h-196v-265h-77v692zM342 333q141 0 141 146q0 145 -142 145h-179v-291h180zM187 831l216 100l26 -66l-219 -87z" />
    <glyph glyph-name="racute" unicode="&#x155;" horiz-adv-x="346" 
d="M67 0zM72 500h74v-68q86 59 183 79v-76q-39 -8 -84.5 -24.5t-72.5 -30.5l-25 -13v-367h-75v500zM67 642l216 98l26 -64l-221 -85z" />
    <glyph glyph-name="Rcommaaccent" unicode="&#x156;" horiz-adv-x="616" 
d="M85 0zM85 692h256q111 0 166 -51.5t55 -158.5q0 -161 -127 -201l133 -281h-85l-125 265h-196v-265h-77v692zM342 333q141 0 141 146q0 145 -142 145h-179v-291h180zM286 -78h74l-50 -207h-65z" />
    <glyph glyph-name="rcommaaccent" unicode="&#x157;" horiz-adv-x="346" 
d="M31 0zM72 500h74v-68q86 59 183 79v-76q-39 -8 -84.5 -24.5t-72.5 -30.5l-25 -13v-367h-75v500zM72 -78h74l-50 -207h-65z" />
    <glyph glyph-name="Rcaron" unicode="&#x158;" horiz-adv-x="616" 
d="M85 0zM85 692h256q111 0 166 -51.5t55 -158.5q0 -161 -127 -201l133 -281h-85l-125 265h-196v-265h-77v692zM342 333q141 0 141 146q0 145 -142 145h-179v-291h180zM134 926h84l83 -80l82 80h84l-134 -135h-65z" />
    <glyph glyph-name="rcaron" unicode="&#x159;" horiz-adv-x="346" 
d="M26 0zM72 500h74v-68q86 59 183 79v-76q-39 -8 -84.5 -24.5t-72.5 -30.5l-25 -13v-367h-75v500zM101 732l75 -87l73 87h75l-124 -140h-51l-123 140h75z" />
    <glyph glyph-name="Sacute" unicode="&#x15a;" horiz-adv-x="542" 
d="M48 0zM90 8l-36 5l8 64q137 -18 207 -18q148 0 148 139q0 38 -13.5 60t-46 36t-94.5 26q-82 17 -127.5 39t-66.5 59t-21 99q0 186 223 186q77 0 209 -20l-7 -65q-144 17 -197 17q-150 0 -150 -113q0 -43 14.5 -65.5t49.5 -36.5t111 -31q74 -17 114.5 -38t59.5 -55.5
t19 -91.5q0 -213 -221 -213q-70 0 -183 17zM163 831l216 100l26 -66l-219 -87z" />
    <glyph glyph-name="sacute" unicode="&#x15b;" horiz-adv-x="465" 
d="M45 0zM82 4l-30 5l4 65q117 -17 172 -17q60 0 89.5 19.5t29.5 62.5q0 31 -14.5 47t-37 23t-63.5 13l-25 4q-60 10 -94 24t-51 39.5t-17 70.5q0 81 49 115t139 34q71 0 145 -13l28 -5l-2 -64q-108 16 -169 16q-58 0 -86.5 -18t-28.5 -56q0 -27 14 -41.5t36.5 -21
t63.5 -13.5l25 -5q62 -11 96 -25.5t50.5 -41.5t16.5 -75q0 -81 -47.5 -118.5t-145.5 -37.5q-60 0 -147 14zM114 642l216 98l26 -64l-221 -85z" />
    <glyph glyph-name="Scircumflex" unicode="&#x15c;" horiz-adv-x="542" 
d="M48 0zM90 8l-36 5l8 64q137 -18 207 -18q148 0 148 139q0 38 -13.5 60t-46 36t-94.5 26q-82 17 -127.5 39t-66.5 59t-21 99q0 186 223 186q77 0 209 -20l-7 -65q-144 17 -197 17q-150 0 -150 -113q0 -43 14.5 -65.5t49.5 -36.5t111 -31q74 -17 114.5 -38t59.5 -55.5
t19 -91.5q0 -213 -221 -213q-70 0 -183 17zM242 923h65l134 -135h-84l-82 80l-83 -80h-84z" />
    <glyph glyph-name="scircumflex" unicode="&#x15d;" horiz-adv-x="465" 
d="M45 0zM82 4l-30 5l4 65q117 -17 172 -17q60 0 89.5 19.5t29.5 62.5q0 31 -14.5 47t-37 23t-63.5 13l-25 4q-60 10 -94 24t-51 39.5t-17 70.5q0 81 49 115t139 34q71 0 145 -13l28 -5l-2 -64q-108 16 -169 16q-58 0 -86.5 -18t-28.5 -56q0 -27 14 -41.5t36.5 -21
t63.5 -13.5l25 -5q62 -11 96 -25.5t50.5 -41.5t16.5 -75q0 -81 -47.5 -118.5t-145.5 -37.5q-60 0 -147 14zM208 732h51l124 -140h-75l-73 87l-75 -87h-75z" />
    <glyph glyph-name="Scedilla" unicode="&#x15e;" horiz-adv-x="542" 
d="M299 -8v-41q61 0 86 -16.5t25 -61.5q0 -90 -93 -90q-42 0 -74 5l-12 2l3 48q39 -3 66 -3q44 0 44 38q0 34 -44 34h-42v84q-65 1 -168 17l-36 5l8 64q137 -18 207 -18q148 0 148 139q0 38 -13.5 60t-46 36t-94.5 26q-82 17 -127.5 39t-66.5 59t-21 99q0 186 223 186
q77 0 209 -20l-7 -65q-144 17 -197 17q-150 0 -150 -113q0 -43 14.5 -65.5t49.5 -36.5t111 -31q74 -17 114.5 -38t59.5 -55.5t19 -91.5q0 -200 -195 -212z" />
    <glyph glyph-name="scedilla" unicode="&#x15f;" horiz-adv-x="465" 
d="M378.5 30.5q-43.5 -37.5 -133.5 -40.5v-39q61 0 86 -16.5t25 -61.5q0 -90 -93 -90q-42 0 -74 5l-12 2l3 48q39 -3 66 -3q44 0 44 38q0 34 -44 34h-42v84q-47 1 -122 13l-30 5l4 65q117 -17 172 -17q60 0 89.5 19.5t29.5 62.5q0 31 -14.5 47t-37 23t-63.5 13l-25 4
q-60 10 -94 24t-51 39.5t-17 70.5q0 81 49 115t139 34q71 0 145 -13l28 -5l-2 -64q-108 16 -169 16q-58 0 -86.5 -18t-28.5 -56q0 -27 14 -41.5t36.5 -21t63.5 -13.5l25 -5q62 -11 96 -25.5t50.5 -41.5t16.5 -75q0 -78 -43.5 -115.5z" />
    <glyph glyph-name="Scaron" unicode="&#x160;" horiz-adv-x="542" 
d="M48 0zM90 8l-36 5l8 64q137 -18 207 -18q148 0 148 139q0 38 -13.5 60t-46 36t-94.5 26q-82 17 -127.5 39t-66.5 59t-21 99q0 186 223 186q77 0 209 -20l-7 -65q-144 17 -197 17q-150 0 -150 -113q0 -43 14.5 -65.5t49.5 -36.5t111 -31q74 -17 114.5 -38t59.5 -55.5
t19 -91.5q0 -213 -221 -213q-70 0 -183 17zM116 926h84l83 -80l82 80h84l-134 -135h-65z" />
    <glyph glyph-name="scaron" unicode="&#x161;" horiz-adv-x="465" 
d="M45 0zM82 4l-30 5l4 65q117 -17 172 -17q60 0 89.5 19.5t29.5 62.5q0 31 -14.5 47t-37 23t-63.5 13l-25 4q-60 10 -94 24t-51 39.5t-17 70.5q0 81 49 115t139 34q71 0 145 -13l28 -5l-2 -64q-108 16 -169 16q-58 0 -86.5 -18t-28.5 -56q0 -27 14 -41.5t36.5 -21
t63.5 -13.5l25 -5q62 -11 96 -25.5t50.5 -41.5t16.5 -75q0 -81 -47.5 -118.5t-145.5 -37.5q-60 0 -147 14zM168 732l75 -87l73 87h75l-124 -140h-51l-123 140h75z" />
    <glyph glyph-name="uni0162" unicode="&#x162;" horiz-adv-x="526" 
d="M285 0v-49q61 0 86 -16.5t25 -61.5q0 -90 -93 -90q-42 0 -74 5l-12 2l3 48q39 -3 66 -3q44 0 44 38q0 34 -44 34h-42v93h-18v623h-213v69h500v-69h-211v-623h-17z" />
    <glyph glyph-name="uni0163" unicode="&#x163;" horiz-adv-x="351" 
d="M27 0zM151.5 5.5q-28.5 16.5 -41 56t-12.5 110.5v263h-71v65h71v153h74v-153h159v-65h-159v-239q0 -56 4 -83.5t19.5 -42t48.5 -14.5l89 6l5 -62q-71 -11 -107 -11q-51 0 -79.5 16.5zM97 -212l-12 2l3 48q39 -3 66 -3q44 0 44 38q0 34 -44 34h-42v94h41v-50
q61 0 86 -16.5t25 -61.5q0 -90 -93 -90q-42 0 -74 5z" />
    <glyph glyph-name="Tcaron" unicode="&#x164;" horiz-adv-x="526" 
d="M13 0zM226 623h-213v69h500v-69h-211v-623h-76v623zM97 926h84l83 -80l82 80h84l-134 -135h-65z" />
    <glyph glyph-name="tcaron" unicode="&#x165;" horiz-adv-x="432" 
d="M370 696h72v-234h-72v234zM151.5 5.5q-28.5 16.5 -41 56t-12.5 110.5v263h-71v65h71v153h74v-153h159v-65h-159v-239q0 -56 4 -83.5t19.5 -42t48.5 -14.5l89 6l5 -62q-71 -11 -107 -11q-51 0 -79.5 16.5z" />
    <glyph glyph-name="Tbar" unicode="&#x166;" horiz-adv-x="529" 
d="M228 300h-163v66h163v257h-213v69h500v-69h-211v-257h164v-66h-164v-300h-76v300z" />
    <glyph glyph-name="tbar" unicode="&#x167;" horiz-adv-x="354" 
d="M155.5 5.5q-29.5 16.5 -42.5 55.5t-13 111v81h-55v59h55v120h-71v68h71v153h75v-153h158v-68h-158v-120h134v-59h-134v-54q0 -61 5 -89t19.5 -39t47.5 -11l89 5l4 -65q-69 -11 -101 -11q-54 0 -83.5 16.5z" />
    <glyph glyph-name="Utilde" unicode="&#x168;" horiz-adv-x="644" 
d="M80 0zM139.5 42.5q-59.5 52.5 -59.5 167.5v482h77v-484q0 -150 162 -150q85 0 127 36t42 114v484h76v-482q0 -114 -60.5 -167t-182.5 -53t-181.5 52.5zM319 830q-62 27 -75 27q-22 0 -61 -36l-13 -12l-17 56q21 24 46.5 41t47.5 17t84 -27q61 -27 71 -27q20 0 58 35
l12 11l18 -56q-47 -56 -88 -56q-22 0 -83 27z" />
    <glyph glyph-name="utilde" unicode="&#x169;" horiz-adv-x="531" 
d="M67 0zM129.5 13.5q-34.5 23.5 -48.5 76.5t-14 149v261h75v-260q0 -75 8 -113t29 -54t65 -16q68 0 140 37v406h75v-500h-75v35q-41 -24 -76 -34.5t-80 -10.5q-64 0 -98.5 23.5zM263 636q-54 23 -65 23q-23 0 -62 -30l-13 -10l-18 48q49 52 91 52q19 0 73 -23t64 -23
q20 0 58 29l13 9l17 -48q-47 -51 -86 -51q-21 0 -72 24z" />
    <glyph glyph-name="Umacron" unicode="&#x16a;" horiz-adv-x="644" 
d="M80 0zM139.5 42.5q-59.5 52.5 -59.5 167.5v482h77v-484q0 -150 162 -150q85 0 127 36t42 114v484h76v-482q0 -114 -60.5 -167t-182.5 -53t-181.5 52.5zM168 870h311v-58h-311v58z" />
    <glyph glyph-name="umacron" unicode="&#x16b;" horiz-adv-x="531" 
d="M67 0zM129.5 13.5q-34.5 23.5 -48.5 76.5t-14 149v261h75v-260q0 -75 8 -113t29 -54t65 -16q68 0 140 37v406h75v-500h-75v35q-41 -24 -76 -34.5t-80 -10.5q-64 0 -98.5 23.5zM126 683h275v-59h-275v59z" />
    <glyph glyph-name="Ubreve" unicode="&#x16c;" horiz-adv-x="644" 
d="M80 0zM139.5 42.5q-59.5 52.5 -59.5 167.5v482h77v-484q0 -150 162 -150q85 0 127 36t42 114v484h76v-482q0 -114 -60.5 -167t-182.5 -53t-181.5 52.5zM212.5 823q-42.5 36 -45.5 95h69q1 -33 26.5 -54t62.5 -21q36 0 61 21t26 54h70q-3 -59 -46 -95t-112 -36t-111.5 36z
" />
    <glyph glyph-name="ubreve" unicode="&#x16d;" horiz-adv-x="531" 
d="M67 0zM129.5 13.5q-34.5 23.5 -48.5 76.5t-14 149v261h75v-260q0 -75 8 -113t29 -54t65 -16q68 0 140 37v406h75v-500h-75v35q-41 -24 -76 -34.5t-80 -10.5q-64 0 -98.5 23.5zM154.5 625.5q-40.5 39.5 -43.5 100.5h61q2 -39 25.5 -61.5t62.5 -22.5t62 23t24 61h62
q-3 -61 -43.5 -100.5t-104.5 -39.5q-65 0 -105.5 39.5z" />
    <glyph glyph-name="Uring" unicode="&#x16e;" horiz-adv-x="644" 
d="M80 0zM139.5 42.5q-59.5 52.5 -59.5 167.5v482h77v-484q0 -150 162 -150q85 0 127 36t42 114v484h76v-482q0 -114 -60.5 -167t-182.5 -53t-181.5 52.5zM238 768.5q-33 28.5 -33 77.5t33 77t86 28t85.5 -28t32.5 -77t-32.5 -77.5t-85.5 -28.5t-86 28.5zM369.5 806.5
q16.5 14.5 16.5 39.5t-16.5 39t-45.5 14q-62 0 -62 -53q0 -25 16.5 -39.5t45.5 -14.5t45.5 14.5z" />
    <glyph glyph-name="uring" unicode="&#x16f;" horiz-adv-x="531" 
d="M67 0zM129.5 13.5q-34.5 23.5 -48.5 76.5t-14 149v261h75v-260q0 -75 8 -113t29 -54t65 -16q68 0 140 37v406h75v-500h-75v35q-41 -24 -76 -34.5t-80 -10.5q-64 0 -98.5 23.5zM193 571.5q-29 30.5 -29 74.5q0 43 29 73t72 30t72 -30t29 -73q0 -44 -29 -74.5t-72 -30.5
t-72 30.5zM304 605.5q16 16.5 16 40.5q0 23 -16 39.5t-39 16.5t-39 -16.5t-16 -39.5q0 -24 16 -40.5t39 -16.5t39 16.5z" />
    <glyph glyph-name="Uhungarumlaut" unicode="&#x170;" horiz-adv-x="644" 
d="M80 0zM139.5 42.5q-59.5 52.5 -59.5 167.5v482h77v-484q0 -150 162 -150q85 0 127 36t42 114v484h76v-482q0 -114 -60.5 -167t-182.5 -53t-181.5 52.5zM155 785l142 132l54 -35l-145 -129zM352 785l142 131l55 -35l-146 -129z" />
    <glyph glyph-name="uhungarumlaut" unicode="&#x171;" horiz-adv-x="531" 
d="M67 0zM129.5 13.5q-34.5 23.5 -48.5 76.5t-14 149v261h75v-260q0 -75 8 -113t29 -54t65 -16q68 0 140 37v406h75v-500h-75v35q-41 -24 -76 -34.5t-80 -10.5q-64 0 -98.5 23.5zM301 624l145 139l54 -43l-148 -138zM108 624l145 138l54 -42l-147 -138z" />
    <glyph glyph-name="Uogonek" unicode="&#x172;" horiz-adv-x="644" 
d="M564 692v-482q0 -91 -37.5 -142.5t-113.5 -68.5q-69 -69 -69 -101q0 -19 11.5 -31t29.5 -12l50 6l7 -58q-45 -9 -82 -9t-63 23.5t-26 56.5q0 30 19 62t43 54h-12q-122 0 -181.5 52.5t-59.5 167.5v482h77v-484q0 -150 162 -150q85 0 127 36t42 114v484h76z" />
    <glyph glyph-name="uogonek" unicode="&#x173;" horiz-adv-x="531" 
d="M481 -197q-45 -9 -82 -9t-63 23.5t-26 56.5q0 30 19 62t43 54l12 10v35q-41 -24 -76 -34.5t-80 -10.5q-64 0 -98.5 23.5t-48.5 76.5t-14 149v261h75v-260q0 -75 8 -113t29 -54t65 -16q68 0 140 37v406h75v-500h-6q-70 -70 -70 -102q0 -19 11.5 -31t29.5 -12l50 6z" />
    <glyph glyph-name="Wcircumflex" unicode="&#x174;" horiz-adv-x="886" 
d="M30 0zM30 692h80l118 -624h29l141 618h90l141 -618h29l118 624h79l-140 -692h-141l-131 591l-131 -591h-141zM411 923h65l134 -135h-84l-82 80l-83 -80h-84z" />
    <glyph glyph-name="wcircumflex" unicode="&#x175;" horiz-adv-x="762" 
d="M31 0zM31 500h75l101 -435h16l119 425h78l119 -425h17l100 435h75l-119 -500h-125l-106 391l-106 -391h-125zM356 732h51l124 -140h-75l-73 87l-75 -87h-75z" />
    <glyph glyph-name="Ycircumflex" unicode="&#x176;" horiz-adv-x="538" 
d="M10 0zM231 291l-221 401h87l172 -324l172 324h87l-220 -401v-291h-77v291zM238 926h65l134 -135h-84l-82 80l-83 -80h-84z" />
    <glyph glyph-name="ycircumflex" unicode="&#x177;" horiz-adv-x="483" 
d="M25 0zM241 0h-74l-142 500h75l125 -435h33l126 435h75l-208 -722h-75zM218 732h51l124 -140h-75l-73 87l-75 -87h-75z" />
    <glyph glyph-name="Ydieresis" unicode="&#x178;" horiz-adv-x="538" 
d="M10 0zM231 291l-221 401h87l172 -324l172 324h87l-220 -401v-291h-77v291zM130 898h73v-90h-73v90zM334 898h72v-90h-72v90z" />
    <glyph glyph-name="Zacute" unicode="&#x179;" horiz-adv-x="536" 
d="M43 0zM43 88l361 514v22h-361v68h450v-90l-362 -514v-20h362v-69h-450v89zM153 831l216 100l26 -66l-219 -87z" />
    <glyph glyph-name="zacute" unicode="&#x17a;" horiz-adv-x="455" 
d="M42 0zM42 67l280 366h-280v67h371v-67l-280 -366h280v-67h-371v67zM113 642l216 98l26 -64l-221 -85z" />
    <glyph glyph-name="Zdotaccent" unicode="&#x17b;" horiz-adv-x="536" 
d="M43 0zM43 88l361 514v22h-361v68h450v-90l-362 -514v-20h362v-69h-450v89zM230 888h74v-87h-74v87z" />
    <glyph glyph-name="zdotaccent" unicode="&#x17c;" horiz-adv-x="455" 
d="M42 0zM42 67l280 366h-280v67h371v-67l-280 -366h280v-67h-371v67zM190 696h74v-87h-74v87z" />
    <glyph glyph-name="Zcaron" unicode="&#x17d;" horiz-adv-x="536" 
d="M43 0zM43 88l361 514v22h-361v68h450v-90l-362 -514v-20h362v-69h-450v89zM109 926h84l83 -80l82 80h84l-134 -135h-65z" />
    <glyph glyph-name="zcaron" unicode="&#x17e;" horiz-adv-x="455" 
d="M42 0zM42 67l280 366h-280v67h371v-67l-280 -366h280v-67h-371v67zM157 732l75 -87l73 87h75l-124 -140h-51l-123 140h75z" />
    <glyph glyph-name="florin" unicode="&#x192;" 
d="M54 -229l-15 2l1 64q67 -5 95 -5q36 0 53.5 26.5t17.5 87.5v420h-63v64h63v54q0 105 29.5 155t105.5 50q32 0 84 -7l16 -2l-1 -63q-40 4 -85 4q-74 0 -74 -115v-76h145v-64h-145v-421q0 -68 -14.5 -107t-45.5 -56t-84 -17q-38 0 -83 6z" />
    <glyph glyph-name="Aringacute" unicode="&#x1fa;" horiz-adv-x="596" 
d="M24 0zM170 924l216 100l26 -66l-219 -87zM446 178h-296l-50 -178h-76l184 669q-30 28 -30 75q0 49 33 77t86 28t85.5 -28t32.5 -77q0 -44 -27 -73l184 -671h-76zM235 744q0 -20 11 -34t31 -18h40q20 4 31 18t11 34q0 25 -16.5 39t-45.5 14q-62 0 -62 -53zM167 247h262
l-105 379h-52z" />
    <glyph glyph-name="aringacute" unicode="&#x1fb;" horiz-adv-x="501" 
d="M40 0zM132 824l216 98l26 -64l-221 -85zM76 29q-36 39 -36 112q0 72 36.5 107t116.5 43l157 15v43q0 95 -82 95q-81 0 -197 -13l-3 57q107 22 195 22q85 0 123.5 -38.5t38.5 -122.5v-256q3 -37 58 -44l-3 -59q-79 0 -119 40q-89 -40 -180 -40q-69 0 -105 39zM327 76l23 8
v165l-148 -14q-45 -4 -65 -26t-20 -64q0 -92 76 -92q67 0 134 23zM183 571.5q-29 30.5 -29 74.5q0 43 29 73t72 30t72 -30t29 -73q0 -44 -29 -74.5t-72 -30.5t-72 30.5zM294 605.5q16 16.5 16 40.5q0 23 -16 39.5t-39 16.5t-39 -16.5t-16 -39.5q0 -24 16 -40.5t39 -16.5
t39 16.5z" />
    <glyph glyph-name="AEacute" unicode="&#x1fc;" horiz-adv-x="876" 
d="M20 0zM244 696h585v-73h-345v-230h285v-73h-285v-247h345v-73h-421v175h-251l-58 -175h-79zM408 249l1 374h-109l-122 -374h230zM413 831l216 100l26 -66l-219 -87z" />
    <glyph glyph-name="aeacute" unicode="&#x1fd;" horiz-adv-x="804" 
d="M40 0zM74.5 29.5q-34.5 39.5 -34.5 116.5q0 52 17.5 81.5t56.5 44.5t107 22l129 12v41q0 91 -87 91q-60 0 -159 -8l-31 -2l-3 67q119 15 197 15q102 0 135 -73q48 73 153 73t154.5 -57t49.5 -177l-4 -58h-330q0 -81 30 -120.5t92 -39.5q68 0 163 7l29 2l2 -61
q-109 -16 -203 -16q-90 0 -138 54l-32 -14q-86 -40 -192 -40q-67 0 -101.5 39.5zM684 279q0 89 -29 126.5t-96 37.5q-68 0 -101 -39.5t-33 -124.5h259zM278.5 68q49.5 13 69.5 24v153l-146 -12q-44 -4 -64.5 -25t-20.5 -63q0 -90 71 -90q41 0 90.5 13zM290 642l216 98
l26 -64l-221 -85z" />
    <glyph glyph-name="Oslashacute" unicode="&#x1fe;" horiz-adv-x="660" 
d="M57 0zM96 -90l59 126q-52 39 -75 113t-23 194q0 125 26 203.5t86 117t161 38.5q75 0 126 -21l56 118l58 -24l-59 -127q93 -78 93 -305q0 -128 -25.5 -204.5t-85 -112.5t-163.5 -36q-67 0 -120 17l-57 -123zM426 615q-37 19 -96 19q-76 0 -117.5 -30t-59 -95t-17.5 -178
q0 -165 52 -223zM448.5 86q41.5 28 58.5 90t17 173q0 161 -48 225l-235 -502q36 -14 89 -14q77 0 118.5 28zM209 831l216 100l26 -66l-219 -87z" />
    <glyph glyph-name="oslashacute" unicode="&#x1ff;" horiz-adv-x="528" 
d="M50 0zM95 -94l44 109q-48 27 -68.5 84t-20.5 157q0 134 49.5 194t164.5 60q37 0 74 -8l43 104l50 -19l-43 -104q90 -49 90 -227q0 -97 -20 -154.5t-66.5 -84.5t-127.5 -27q-39 0 -76 8l-43 -110zM314 439l-50 6q-76 0 -106.5 -40t-30.5 -132q0 -80 7.5 -125.5t34.5 -67.5
zM350 73.5q29 18.5 40 61.5t11 126q0 118 -42 156l-146 -357q20 -5 51 -5q57 0 86 18.5zM144 642l216 98l26 -64l-221 -85z" />
    <glyph glyph-name="Scommaaccent" unicode="&#x218;" horiz-adv-x="542" 
d="M48 0zM90 8l-36 5l8 64q137 -18 207 -18q148 0 148 139q0 38 -13.5 60t-46 36t-94.5 26q-82 17 -127.5 39t-66.5 59t-21 99q0 186 223 186q77 0 209 -20l-7 -65q-144 17 -197 17q-150 0 -150 -113q0 -43 14.5 -65.5t49.5 -36.5t111 -31q74 -17 114.5 -38t59.5 -55.5
t19 -91.5q0 -213 -221 -213q-70 0 -183 17zM249 -78h74l-50 -207h-65z" />
    <glyph glyph-name="scommaaccent" unicode="&#x219;" horiz-adv-x="465" 
d="M45 0zM82 4l-30 5l4 65q117 -17 172 -17q60 0 89.5 19.5t29.5 62.5q0 31 -14.5 47t-37 23t-63.5 13l-25 4q-60 10 -94 24t-51 39.5t-17 70.5q0 81 49 115t139 34q71 0 145 -13l28 -5l-2 -64q-108 16 -169 16q-58 0 -86.5 -18t-28.5 -56q0 -27 14 -41.5t36.5 -21
t63.5 -13.5l25 -5q62 -11 96 -25.5t50.5 -41.5t16.5 -75q0 -81 -47.5 -118.5t-145.5 -37.5q-60 0 -147 14zM152 -78h74l-50 -207h-65z" />
    <glyph glyph-name="uni021A" unicode="&#x21a;" horiz-adv-x="526" 
d="M13 0zM226 623h-213v69h500v-69h-211v-623h-76v623zM247 -78h74l-50 -207h-65z" />
    <glyph glyph-name="uni021B" unicode="&#x21b;" horiz-adv-x="351" 
d="M27 0zM151.5 5.5q-28.5 16.5 -41 56t-12.5 110.5v263h-71v65h71v153h74v-153h159v-65h-159v-239q0 -56 4 -83.5t19.5 -42t48.5 -14.5l89 6l5 -62q-71 -11 -107 -11q-51 0 -79.5 16.5zM142 -78h74l-50 -207h-65z" />
    <glyph glyph-name="circumflex" unicode="&#x2c6;" horiz-adv-x="236" 
d="M104 732h51l124 -140h-75l-73 87l-75 -87h-75z" />
    <glyph glyph-name="caron" unicode="&#x2c7;" horiz-adv-x="236" 
d="M58 732l75 -87l73 87h75l-124 -140h-51l-123 140h75z" />
    <glyph glyph-name="breve" unicode="&#x2d8;" horiz-adv-x="236" 
d="M26.5 625.5q-40.5 39.5 -43.5 100.5h61q2 -39 25.5 -61.5t62.5 -22.5t62 23t24 61h62q-3 -61 -43.5 -100.5t-104.5 -39.5q-65 0 -105.5 39.5z" />
    <glyph glyph-name="dotaccent" unicode="&#x2d9;" horiz-adv-x="236" 
d="M81 696h74v-87h-74v87z" />
    <glyph glyph-name="ring" unicode="&#x2da;" horiz-adv-x="236" 
d="M50 571.5q-29 30.5 -29 74.5q0 43 29 73t72 30t72 -30t29 -73q0 -44 -29 -74.5t-72 -30.5t-72 30.5zM161 605.5q16 16.5 16 40.5q0 23 -16 39.5t-39 16.5t-39 -16.5t-16 -39.5q0 -24 16 -40.5t39 -16.5t39 16.5z" />
    <glyph glyph-name="ogonek" unicode="&#x2db;" horiz-adv-x="450" 
d="M214 -182.5q-26 23.5 -26 56.5q0 30 19 62t43 54l21 18l61 -7q-71 -71 -71 -103q0 -19 11.5 -31t29.5 -12l50 6l7 -58q-45 -9 -82 -9t-63 23.5z" />
    <glyph glyph-name="tilde" unicode="&#x2dc;" horiz-adv-x="236" 
d="M128 636q-54 23 -65 23q-23 0 -62 -30l-13 -10l-18 48q49 52 91 52q19 0 73 -23t64 -23q20 0 58 29l13 9l17 -48q-47 -51 -86 -51q-21 0 -72 24z" />
    <glyph glyph-name="hungarumlaut" unicode="&#x2dd;" horiz-adv-x="236" 
d="M142 624l145 139l54 -43l-148 -138zM-51 624l145 138l54 -42l-147 -138z" />
    <glyph glyph-name="pi" unicode="&#x3c0;" 
d="M419 9q-34 13 -47 46t-13 99v281h-156l-28 -435h-76l31 435q-56 0 -96 -10l-12 -3v63q58 15 142 15h235q68 0 115 10l16 4v-63q-30 -13 -96 -14v-283q0 -39 7 -58.5t25.5 -27t54.5 -7.5v-65q-68 0 -102 13z" />
    <glyph glyph-name="uni060C" unicode="&#x60c;" horiz-adv-x="223" 
d="M127 107h62l-46 -230h-83z" />
    <glyph glyph-name="uni0615" unicode="&#x615;" horiz-adv-x="0" 
d="M186.5 914q21.5 -20 21.5 -63v-81h-208v43h15v186h41v-122q15 28 32.5 42.5t45.5 14.5q31 0 52.5 -20zM76.5 867q-20.5 -23 -20.5 -49v-5h111v38q0 18 -9.5 28.5t-29.5 10.5q-31 0 -51.5 -23z" />
    <glyph glyph-name="uni061B" unicode="&#x61b;" horiz-adv-x="248" 
d="M138 559h62l-46 -230h-83zM78 114h82v-114h-82v114z" />
    <glyph glyph-name="uni061F" unicode="&#x61f;" horiz-adv-x="444" 
d="M223 201v35q0 32 -19.5 58t-74.5 72q-37 31 -55.5 54t-25.5 50t-7 72q0 84 49 122t153 38q66 0 167 -30l-5 -61q-112 23 -155 23q-69 0 -101 -22.5t-32 -69.5q0 -31 7 -51.5t24 -40t54 -51.5q54 -47 75.5 -76t21.5 -61q0 -35 -13 -61h-63zM215 1v112h82v-112h-82z" />
    <glyph glyph-name="uni0621" unicode="&#x621;" horiz-adv-x="538" 
d="M495 94l-431 -94l-16 60l101 26q-35 34 -52.5 75.5t-17.5 86.5q0 54 25.5 102.5t72.5 78t109 29.5q64 0 135 -32l-14 -64q-46 20 -90 20q-46 0 -80.5 -21.5t-53 -56.5t-18.5 -75q0 -36 15 -68t45 -56l252 64z" />
    <glyph glyph-name="uni0622" unicode="&#x622;" horiz-adv-x="257" 
d="M0 0zM90 632h77v-632h-77v632zM126 714q-21 9 -37.5 15.5t-23.5 6.5q-17 0 -49 -29l-11 -9l-13 45q17 19 37.5 32.5t38.5 13.5q11 0 26 -5t42 -17q49 -21 57 -21q7 0 21 8.5t26 19.5l10 9l14 -45q-18 -22 -36 -33.5t-33 -11.5q-20 0 -69 21z" />
    <glyph glyph-name="uni0623" unicode="&#x623;" horiz-adv-x="257" 
d="M18 0zM90 632h77v-632h-77v632zM231 709l-204 -40l-9 32l48 13q-34 28 -34 71q0 37 26 63.5t67 26.5q23 0 43 -8t30 -16l-10 -38q-6 5 -18.5 10t-27.5 5q-26 0 -42.5 -17t-16.5 -40q0 -29 23 -46l114 30z" />
    <glyph glyph-name="uni0624" unicode="&#x624;" horiz-adv-x="504" 
d="M40 0zM350.5 513q56.5 -6 93.5 -13v-438q0 -159 -39.5 -234.5t-136.5 -75.5q-46 0 -151 15v68q93 -14 146 -14q35 0 56.5 12.5t34.5 51.5t13 115h-147q-109 0 -144.5 69t-35.5 179q0 93 18 151.5t65 89t131 30.5q40 0 96.5 -6zM143 119.5q26 -50.5 106 -50.5h118v374
q-54 7 -94 7q-61 0 -95 -22.5t-47.5 -66t-13.5 -111.5q0 -80 26 -130.5zM355 638l-204 -40l-9 32l48 13q-34 28 -34 71q0 37 26 63.5t67 26.5q23 0 43 -8t30 -16l-10 -38q-6 5 -18.5 10t-27.5 5q-26 0 -42.5 -17t-16.5 -40q0 -29 23 -46l114 30z" />
    <glyph glyph-name="uni0625" unicode="&#x625;" horiz-adv-x="257" 
d="M32 0zM90 718h77v-718h-77v718zM245 -223l-204 -40l-9 32l48 13q-34 28 -34 71q0 37 26 63.5t67 26.5q23 0 43 -8t30 -16l-10 -38q-6 5 -18.5 10t-27.5 5q-26 0 -42.5 -17t-16.5 -40q0 -29 23 -46l114 30z" />
    <glyph glyph-name="uni0626" unicode="&#x626;" horiz-adv-x="847" 
d="M40 0zM170 -221q-60 27 -95 75.5t-35 110.5q0 61 26 221l73 -12q-22 -147 -22 -192q0 -47 24.5 -84t66 -57t90.5 -20l264 -1q71 0 109.5 45.5t38.5 115.5q0 39 -14 64t-47 42t-93 30q-82 17 -127.5 39t-66.5 59t-21 99q0 186 223 186q77 0 209 -20l-7 -65
q-144 17 -197 17q-150 0 -150 -113q0 -43 14.5 -65.5t49.5 -36.5t111 -31q71 -16 113 -40.5t61 -62.5t19 -96q0 -107 -57 -171t-164 -64h-263q-73 0 -133 27zM261 306l-204 -40l-9 32l48 13q-34 28 -34 71q0 37 26 63.5t67 26.5q23 0 43 -8t30 -16l-10 -38q-6 5 -18.5 10
t-27.5 5q-26 0 -42.5 -17t-16.5 -40q0 -29 23 -46l114 30z" />
    <glyph glyph-name="uni0627" unicode="&#x627;" horiz-adv-x="257" 
d="M90 718h77v-718h-77v718z" />
    <glyph glyph-name="uni0628" unicode="&#x628;" horiz-adv-x="765" 
d="M54 0zM685 500v-500h-372q-96 0 -152 16t-81.5 51t-25.5 96q0 76 31 227l60 -3l-10 -80q-1 -11 -6.5 -55.5t-5.5 -70.5q0 -43 17.5 -67t58 -34.5t113.5 -10.5h296v431h77zM345 -80h76v-84h-76v84z" />
    <glyph glyph-name="uni0629" unicode="&#x629;" horiz-adv-x="555" 
d="M40 0zM379.5 506.5q76.5 -3.5 115.5 -7.5v-499h-219q-89 0 -140 25t-73.5 79.5t-22.5 148.5q0 93 21.5 149t71 82t133.5 26q37 0 113.5 -3.5zM133.5 146q16.5 -40 53.5 -58.5t102 -18.5h129v365q-88 6 -136 6q-91 0 -128 -43t-37 -142q0 -69 16.5 -109zM178 677h76v-84
h-76v84zM303 677h76v-84h-76v84z" />
    <glyph glyph-name="uni062A" unicode="&#x62a;" horiz-adv-x="765" 
d="M54 0zM685 500v-500h-372q-96 0 -152 16t-81.5 51t-25.5 96q0 76 31 227l60 -3l-10 -80q-1 -11 -6.5 -55.5t-5.5 -70.5q0 -43 17.5 -67t58 -34.5t113.5 -10.5h296v431h77zM283 584h76v-84h-76v84zM408 584h76v-84h-76v84z" />
    <glyph glyph-name="uni062B" unicode="&#x62b;" horiz-adv-x="765" 
d="M54 0zM685 500v-500h-372q-96 0 -152 16t-81.5 51t-25.5 96q0 76 31 227l60 -3l-10 -80q-1 -11 -6.5 -55.5t-5.5 -70.5q0 -43 17.5 -67t58 -34.5t113.5 -10.5h296v431h77zM345 706h75v-81h-75v81zM282 584h76v-84h-76v84zM407 584h76v-84h-76v84z" />
    <glyph glyph-name="uni062C" unicode="&#x62c;" horiz-adv-x="553" 
d="M40 0zM154 8q-35 -32 -35 -103q0 -74 41 -113.5t126 -39.5q72 0 185 22l9 -61q-128 -29 -210 -29q-113 0 -171.5 58t-58.5 167q0 200 205 200q54 0 100 -12.5t71 -27.5v271q0 50 -26 75.5t-78 25.5q-45 0 -178 -16l-28 -3l-3 57q151 31 226 31q164 0 164 -171v-339h-77
q-28 16 -71.5 28t-88.5 12q-67 0 -102 -32zM283 -85h76v-84h-76v84z" />
    <glyph glyph-name="uni062D" unicode="&#x62d;" horiz-adv-x="553" 
d="M154 8q-35 -32 -35 -103q0 -74 41 -113.5t126 -39.5q72 0 185 22l9 -61q-128 -29 -210 -29q-113 0 -171.5 58t-58.5 167q0 200 205 200q54 0 100 -12.5t71 -27.5v271q0 50 -26 75.5t-78 25.5q-45 0 -178 -16l-28 -3l-3 57q151 31 226 31q164 0 164 -171v-339h-77
q-28 16 -71.5 28t-88.5 12q-67 0 -102 -32z" />
    <glyph glyph-name="uni062E" unicode="&#x62e;" horiz-adv-x="553" 
d="M40 0zM154 8q-35 -32 -35 -103q0 -74 41 -113.5t126 -39.5q72 0 185 22l9 -61q-128 -29 -210 -29q-113 0 -171.5 58t-58.5 167q0 200 205 200q54 0 100 -12.5t71 -27.5v271q0 50 -26 75.5t-78 25.5q-45 0 -178 -16l-28 -3l-3 57q151 31 226 31q164 0 164 -171v-339h-77
q-28 16 -71.5 28t-88.5 12q-67 0 -102 -32zM239 677h76v-84h-76v84z" />
    <glyph glyph-name="uni062F" unicode="&#x62f;" horiz-adv-x="492" 
d="M368.5 442.5q73.5 -78.5 73.5 -255.5v-187h-402v69h325v116q0 148 -57.5 207.5t-134.5 59.5h-81l-5 57q10 4 40.5 8t58.5 4q109 0 182.5 -78.5z" />
    <glyph glyph-name="uni0630" unicode="&#x630;" horiz-adv-x="492" 
d="M40 0zM368.5 442.5q73.5 -78.5 73.5 -255.5v-187h-402v69h325v116q0 148 -57.5 207.5t-134.5 59.5h-81l-5 57q10 4 40.5 8t58.5 4q109 0 182.5 -78.5zM114 704h76v-84h-76v84z" />
    <glyph glyph-name="uni0631" unicode="&#x631;" horiz-adv-x="350" 
d="M84.5 -248q-13.5 1 -23.5 2l-21 2v68q50 -4 63 -4q50 0 74.5 39.5t24.5 110.5v529h77v-510q0 -238 -165 -238q-16 0 -29.5 1z" />
    <glyph glyph-name="uni0632" unicode="&#x632;" horiz-adv-x="350" 
d="M40 0zM84.5 -248q-13.5 1 -23.5 2l-21 2v68q50 -4 63 -4q50 0 74.5 39.5t24.5 110.5v529h77v-510q0 -238 -165 -238q-16 0 -29.5 1zM201 677h76v-84h-76v84z" />
    <glyph glyph-name="uni0633" unicode="&#x633;" horiz-adv-x="1140" 
d="M1060.5 379q9.5 -64 9.5 -101v-278h-186q-61 0 -111 42q-36 -42 -95 -42h-123v-40q0 -67 -34.5 -114t-92 -70.5t-125.5 -23.5q-73 0 -133 27t-95 75.5t-35 110.5q0 38 12 127t28 181l74 -4q-15 -88 -26 -172t-11 -116q0 -47 24.5 -83.5t66 -56.5t90.5 -20q48 0 89.5 19
t66 53.5t24.5 77.5v479h77v-381h99q46 0 66.5 39.5t20.5 99.5v242h77v-241q0 -61 -14 -106q15 -13 38 -23.5t46 -10.5h105v217q0 38 -5.5 95.5t-12.5 115.5l63 3q13 -57 22.5 -121z" />
    <glyph glyph-name="uni0634" unicode="&#x634;" horiz-adv-x="1140" 
d="M40 0zM1060.5 379q9.5 -64 9.5 -101v-278h-186q-61 0 -111 42q-36 -42 -95 -42h-123v-40q0 -67 -34.5 -114t-92 -70.5t-125.5 -23.5q-73 0 -133 27t-95 75.5t-35 110.5q0 38 12 127t28 181l74 -4q-15 -88 -26 -172t-11 -116q0 -47 24.5 -83.5t66 -56.5t90.5 -20
q48 0 89.5 19t66 53.5t24.5 77.5v479h77v-381h99q46 0 66.5 39.5t20.5 99.5v242h77v-241q0 -61 -14 -106q15 -13 38 -23.5t46 -10.5h105v217q0 38 -5.5 95.5t-12.5 115.5l63 3q13 -57 22.5 -121zM741 799h75v-81h-75v81zM678 677h76v-84h-76v84zM803 677h76v-84h-76v84z" />
    <glyph glyph-name="uni0635" unicode="&#x635;" horiz-adv-x="1126" 
d="M1066 0h-511v-40q0 -67 -34.5 -114t-92 -70.5t-125.5 -23.5q-73 0 -133 27t-95 75.5t-35 110.5q0 38 12 127t28 181l74 -4q-37 -235 -37 -287q0 -47 24.5 -84t66 -57t90.5 -20q48 0 89 19t66 53.5t25 77.5v529h77v-160q45 56 81.5 91t85.5 57t113 22q126 0 178.5 -77.5
t52.5 -181.5v-251zM712 407q-53 -34 -86 -72.5t-71 -91.5v-174h434v171q0 86 -41.5 143.5t-120.5 57.5q-62 0 -115 -34z" />
    <glyph glyph-name="uni0636" unicode="&#x636;" horiz-adv-x="1126" 
d="M40 0zM1066 0h-511v-40q0 -67 -34.5 -114t-92 -70.5t-125.5 -23.5q-73 0 -133 27t-95 75.5t-35 110.5q0 38 12 127t28 181l74 -4q-37 -235 -37 -287q0 -47 24.5 -84t66 -57t90.5 -20q48 0 89 19t66 53.5t25 77.5v529h77v-160q45 56 81.5 91t85.5 57t113 22
q126 0 178.5 -77.5t52.5 -181.5v-251zM712 407q-53 -34 -86 -72.5t-71 -91.5v-174h434v171q0 86 -41.5 143.5t-120.5 57.5q-62 0 -115 -34zM737 677h76v-84h-76v84z" />
    <glyph glyph-name="uni0637" unicode="&#x637;" horiz-adv-x="726" 
d="M613.5 432.5q52.5 -77.5 52.5 -181.5v-251h-642v69h54v649h77v-378q45 56 81.5 91t85.5 57t113 22q126 0 178.5 -77.5zM312 407q-53 -34 -86 -72.5t-71 -91.5v-174h434v171q0 86 -41.5 143.5t-120.5 57.5q-62 0 -115 -34z" />
    <glyph glyph-name="uni0638" unicode="&#x638;" horiz-adv-x="726" 
d="M24 0zM613.5 432.5q52.5 -77.5 52.5 -181.5v-251h-642v69h54v649h77v-378q45 56 81.5 91t85.5 57t113 22q126 0 178.5 -77.5zM312 407q-53 -34 -86 -72.5t-71 -91.5v-174h434v171q0 86 -41.5 143.5t-120.5 57.5q-62 0 -115 -34zM325 677h76v-84h-76v84z" />
    <glyph glyph-name="uni0639" unicode="&#x639;" horiz-adv-x="510" 
d="M471 -226l9 -61q-48 -11 -105.5 -20t-104.5 -9q-113 0 -171.5 58.5t-58.5 168.5q0 146 113 184q-24 36 -36.5 83.5t-12.5 96.5q0 67 24 120t71.5 84t115.5 31q39 0 83.5 -10.5t81.5 -29.5l-3 -68q-16 11 -64 25t-89 14q-68 0 -104.5 -44t-36.5 -127q0 -100 59 -161h5
q55 0 98.5 -12t70.5 -28v-69q-28 15 -72.5 27.5t-89.5 12.5q-137 0 -137 -135q0 -153 169 -153q72 0 185 22z" />
    <glyph glyph-name="uni063A" unicode="&#x63a;" horiz-adv-x="510" 
d="M40 0zM471 -226l9 -61q-48 -11 -105.5 -20t-104.5 -9q-113 0 -171.5 58.5t-58.5 168.5q0 146 113 184q-24 36 -36.5 83.5t-12.5 96.5q0 67 24 120t71.5 84t115.5 31q39 0 83.5 -10.5t81.5 -29.5l-3 -68q-16 11 -64 25t-89 14q-68 0 -104.5 -44t-36.5 -127q0 -100 59 -161
h5q55 0 98.5 -12t70.5 -28v-69q-28 15 -72.5 27.5t-89.5 12.5q-137 0 -137 -135q0 -153 169 -153q72 0 185 22zM267 677h76v-84h-76v84z" />
    <glyph glyph-name="uni0640" unicode="&#x640;" horiz-adv-x="250" 
d="M0 69h250v-69h-250v69z" />
    <glyph glyph-name="uni0641" unicode="&#x641;" horiz-adv-x="960" 
d="M40 0zM900 489v-489h-601q-96 0 -152 16t-81.5 51t-25.5 96q0 41 9.5 105t22.5 122l60 -3q-1 -7 -7 -50q-16 -117 -16 -156q0 -43 17.5 -67t58 -34.5t113.5 -10.5h226q-27 53 -27 169q0 103 21.5 159t72 79t143.5 23q76 0 138 -7zM610 69h213v359q-68 5 -96 5
q-63 0 -96 -19t-45.5 -60t-12.5 -114q0 -127 37 -171zM695 677h76v-84h-76v84z" />
    <glyph glyph-name="uni0642" unicode="&#x642;" horiz-adv-x="857" 
d="M40 0zM787 489v-526q0 -96 -62 -154t-171 -58h-281q-109 0 -171 58t-62 155q0 73 36 283l73 -12q-17 -109 -24.5 -164t-7.5 -90q0 -75 39.5 -118t119.5 -43h274q81 0 120.5 43t39.5 118v19h-145q-69 0 -107.5 20t-56 70t-17.5 143q0 96 20 153.5t68 85.5t135 28
q30 0 76 -2.5t76 -5.5zM473.5 134q12.5 -36 40.5 -50.5t77 -14.5h119v358q-69 6 -94 6q-60 0 -93.5 -20.5t-47.5 -63t-14 -112.5q0 -67 12.5 -103zM520 677h76v-84h-76v84zM645 677h76v-84h-76v84z" />
    <glyph glyph-name="uni0643" unicode="&#x643;" horiz-adv-x="761" 
d="M50 0zM671 718v-718h-362q-96 0 -152 16t-81.5 51t-25.5 96q0 68 26 198l62 -3q-4 -28 -5 -42q-14 -94 -14 -135q0 -43 17.5 -67t58 -34.5t113.5 -10.5h286v649h77zM455 395l-204 -40l-9 32l48 13q-34 28 -34 71q0 37 26 63.5t67 26.5q23 0 43 -8t30 -16l-10 -38
q-6 5 -18.5 10t-27.5 5q-26 0 -42.5 -17t-16.5 -40q0 -29 23 -46l114 30z" />
    <glyph glyph-name="uni0644" unicode="&#x644;" horiz-adv-x="645" 
d="M170 -221q-60 27 -95 75t-35 110q0 38 12 128t28 181l74 -4q-15 -98 -26 -184.5t-11 -115.5q0 -43 24.5 -77t66.5 -52.5t93 -18.5q74 0 125.5 38.5t51.5 109.5v749h77v-758q0 -67 -34.5 -114t-92 -70.5t-125.5 -23.5q-73 0 -133 27z" />
    <glyph glyph-name="uni0645" unicode="&#x645;" horiz-adv-x="603" 
d="M485 450q58 -60 58 -200v-250h-322q-111 0 -111 -137q0 -63 27 -188l-65 -2q-31 144 -31 218q0 73 24.5 112.5t62.5 54.5q-16 84 -16 186q0 67 8 132.5t18 106.5q24 10 70 18.5t97 8.5q122 0 180 -60zM466 69v182q0 102 -43 146t-131 44q-49 0 -87 -10q-16 -87 -16 -187
q0 -49 4.5 -97.5t9.5 -77.5h263z" />
    <glyph glyph-name="uni0646" unicode="&#x646;" horiz-adv-x="615" 
d="M40 0zM170 -221q-60 27 -95 75t-35 110q0 38 12 128t28 181l74 -4q-15 -98 -26 -184.5t-11 -115.5q0 -43 24.5 -77t66.5 -52.5t93 -18.5q74 0 125.5 38.5t51.5 109.5v531h77v-540q0 -67 -34.5 -114t-92 -70.5t-125.5 -23.5q-73 0 -133 27zM267 584h76v-84h-76v84z" />
    <glyph glyph-name="uni0647" unicode="&#x647;" horiz-adv-x="555" 
d="M379.5 506.5q76.5 -3.5 115.5 -7.5v-499h-219q-89 0 -140 25t-73.5 79.5t-22.5 148.5q0 93 21.5 149t71 82t133.5 26q37 0 113.5 -3.5zM133.5 146q16.5 -40 53.5 -58.5t102 -18.5h129v365q-88 6 -136 6q-91 0 -128 -43t-37 -142q0 -69 16.5 -109z" />
    <glyph glyph-name="uni0648" unicode="&#x648;" horiz-adv-x="504" 
d="M350.5 513q56.5 -6 93.5 -13v-438q0 -159 -39.5 -234.5t-136.5 -75.5q-46 0 -151 15v68q93 -14 146 -14q35 0 56.5 12.5t34.5 51.5t13 115h-147q-109 0 -144.5 69t-35.5 179q0 93 18 151.5t65 89t131 30.5q40 0 96.5 -6zM143 119.5q26 -50.5 106 -50.5h118v374
q-54 7 -94 7q-61 0 -95 -22.5t-47.5 -66t-13.5 -111.5q0 -80 26 -130.5z" />
    <glyph glyph-name="uni0649" unicode="&#x649;" horiz-adv-x="847" 
d="M170 -221q-60 27 -95 75.5t-35 110.5q0 61 26 221l73 -12q-22 -147 -22 -192q0 -47 24.5 -84t66 -57t90.5 -20l264 -1q71 0 109.5 45.5t38.5 115.5q0 39 -14 64t-47 42t-93 30q-82 17 -127.5 39t-66.5 59t-21 99q0 186 223 186q77 0 209 -20l-7 -65q-144 17 -197 17
q-150 0 -150 -113q0 -43 14.5 -65.5t49.5 -36.5t111 -31q71 -16 113 -40.5t61 -62.5t19 -96q0 -107 -57 -171t-164 -64h-263q-73 0 -133 27z" />
    <glyph glyph-name="uni064A" unicode="&#x64a;" horiz-adv-x="847" 
d="M40 0zM170 -221q-60 27 -95 75.5t-35 110.5q0 61 26 221l73 -12q-22 -147 -22 -192q0 -47 24.5 -84t66 -57t90.5 -20l264 -1q71 0 109.5 45.5t38.5 115.5q0 39 -14 64t-47 42t-93 30q-82 17 -127.5 39t-66.5 59t-21 99q0 186 223 186q77 0 209 -20l-7 -65
q-144 17 -197 17q-150 0 -150 -113q0 -43 14.5 -65.5t49.5 -36.5t111 -31q71 -16 113 -40.5t61 -62.5t19 -96q0 -107 -57 -171t-164 -64h-263q-73 0 -133 27zM312 -320h76v-84h-76v84zM437 -320h76v-84h-76v84z" />
    <glyph glyph-name="uni064B" unicode="&#x64b;" horiz-adv-x="0" 
d="M0 697zM-107 747l214 42v-50l-214 -42v50zM-107 839l214 42v-50l-214 -42v50z" />
    <glyph glyph-name="uni064C" unicode="&#x64c;" horiz-adv-x="0" 
d="M102 809l-10 -2l-204 -40q-5 12 -20 70l-6 21l32 10l19 -60l37 10q-14 32 -14 66t17.5 55t57.5 21q47 0 70.5 -29t20.5 -76v-46zM-19 883q0 -25 15 -53l58 15q2 12 2 24q0 48 -41 48q-34 0 -34 -34z" />
    <glyph glyph-name="uni064D" unicode="&#x64d;" horiz-adv-x="0" 
d="M0 -37zM-107 -79l214 42v-50l-214 -42v50zM-107 -175l214 42v-50l-214 -42v50z" />
    <glyph glyph-name="uni064E" unicode="&#x64e;" horiz-adv-x="0" 
d="M-107 747l214 42v-50l-214 -42v50z" />
    <glyph glyph-name="uni064F" unicode="&#x64f;" horiz-adv-x="0" 
d="M102 809l-10 -2l-204 -40v35l62 16q-14 32 -14 66t17.5 55t57.5 21q47 0 70.5 -29t20.5 -76v-46zM-19 883q0 -25 15 -53l58 15q2 12 2 24q0 48 -41 48q-34 0 -34 -34z" />
    <glyph glyph-name="uni0650" unicode="&#x650;" horiz-adv-x="0" 
d="M-107 -79l214 42v-50l-214 -42v50z" />
    <glyph glyph-name="uni0651" unicode="&#x651;" horiz-adv-x="0" 
d="M-94 726q-13 15 -13 47q0 31 2 49l36 8v-50q0 -15 6.5 -24t19.5 -7q13 1 20 11.5t7 26.5v38l34 7v-43q0 -10 9 -17t20 -4l21 4v86l34 7q5 -29 5 -59v-64l-57 -11q-4 -1 -13 -1q-22 0 -32 17q-10 -36 -59 -36q-27 0 -40 15z" />
    <glyph glyph-name="uni0652" unicode="&#x652;" horiz-adv-x="0" 
d="M-62.5 719.5q-25.5 27.5 -25.5 66.5t25.5 66.5t61.5 27.5q37 0 63 -27.5t26 -66.5t-26 -66.5t-63 -27.5q-36 0 -61.5 27.5zM33 748.5q14 15.5 14 37.5t-13.5 37t-33.5 15t-33.5 -15t-13.5 -37t14 -37.5t33 -15.5t33 15.5z" />
    <glyph glyph-name="uni0653" unicode="&#x653;" horiz-adv-x="0" 
d="M-2 782q-21 9 -37.5 15.5t-23.5 6.5q-17 0 -49 -29l-11 -9l-13 45q17 19 37.5 32.5t38.5 13.5q11 0 26 -5t42 -17q49 -21 57 -21q7 0 21 8.5t26 19.5l10 9l14 -45q-18 -22 -36 -33.5t-33 -11.5q-20 0 -69 21z" />
    <glyph glyph-name="uni0654" unicode="&#x654;" horiz-adv-x="0" 
d="M115 788l-204 -40l-9 32l48 13q-34 28 -34 71q0 37 26 63.5t67 26.5q23 0 43 -8t30 -16l-10 -38q-6 5 -18.5 10t-27.5 5q-26 0 -42.5 -17t-16.5 -40q0 -29 23 -46l114 30z" />
    <glyph glyph-name="uni0655" unicode="&#x655;" horiz-adv-x="0" 
d="M116 -223l-204 -40l-9 32l48 13q-34 28 -34 71q0 37 26 63.5t67 26.5q23 0 43 -8t30 -16l-10 -38q-6 5 -18.5 10t-27.5 5q-26 0 -42.5 -17t-16.5 -40q0 -29 23 -46l114 30z" />
    <glyph glyph-name="uni0656" unicode="&#x656;" horiz-adv-x="0" 
d="M-27 20l54 23v-189l-54 -23v189z" />
    <glyph glyph-name="uni0658" unicode="&#x658;" horiz-adv-x="0" 
d="M-66.5 693.5q-27.5 21.5 -27.5 55.5q0 24 14 113l32 -1q-14 -91 -14 -106q0 -24 17.5 -39t45.5 -15q27 0 44 13.5t17 37.5v194h32v-198q0 -36 -26.5 -56t-65.5 -20q-41 0 -68.5 21.5z" />
    <glyph glyph-name="uni0660" unicode="&#x660;" horiz-adv-x="272" 
d="M80 290h112v-139h-112v139z" />
    <glyph glyph-name="uni0661" unicode="&#x661;" horiz-adv-x="315" 
d="M119 660h77v-660h-77v660z" />
    <glyph glyph-name="uni0662" unicode="&#x662;" horiz-adv-x="517" 
d="M114 660h77v-130q0 -69 24 -100.5t78 -31.5q57 0 80 33t23 98v131h77v-134q0 -95 -48.5 -146t-131.5 -51q-73 0 -102 43v-372h-77v660z" />
    <glyph glyph-name="uni0663" unicode="&#x663;" horiz-adv-x="658" 
d="M111 660h77v-159q0 -48 15 -75.5t54 -27.5t54.5 27.5t15.5 73.5v161h65v-160q0 -46 15.5 -73.5t54.5 -27.5t53.5 27t14.5 74v160h77v-162q0 -80 -35.5 -124.5t-105.5 -44.5q-38 0 -67 14t-43 42q-13 -29 -36.5 -42.5t-53.5 -13.5q-57 0 -78 43v-372h-77v660z" />
    <glyph glyph-name="uni0664" unicode="&#x664;" horiz-adv-x="485" 
d="M423 69v-69h-192q-72 0 -116 33.5t-44 85.5q0 46 43.5 102.5t157.5 121.5q-53 0 -92.5 23.5t-60.5 61.5t-21 80q0 69 56.5 110.5t157.5 41.5q49 0 83 -9l-7 -63q-51 7 -85 7q-58 0 -94 -25t-36 -71q0 -43 29 -75t77 -32h103l-7 -63q-226 -104 -226 -193q0 -30 25 -48.5
t66 -18.5h183z" />
    <glyph glyph-name="uni0665" unicode="&#x665;" horiz-adv-x="613" 
d="M121.5 95.5q-54.5 97.5 -54.5 232.5q0 130 52 234t187 104q137 0 188.5 -104t51.5 -234q0 -135 -55 -232.5t-185 -97.5t-184.5 97.5zM432 144q37 78 37 185q0 104 -35 186.5t-128 82.5q-92 0 -127 -82.5t-35 -186.5q0 -107 37 -185t125 -78q89 0 126 78z" />
    <glyph glyph-name="uni0666" unicode="&#x666;" horiz-adv-x="444" 
d="M251 591h-227v69h304v-660h-77v591z" />
    <glyph glyph-name="uni0667" unicode="&#x667;" horiz-adv-x="589" 
d="M29 652h87q162 -526 175 -583h2q7 31 81.5 269t99.5 314h83l-218 -652h-100z" />
    <glyph glyph-name="uni0668" unicode="&#x668;" horiz-adv-x="589" 
d="M239 652h100l218 -652h-83q-25 76 -99.5 314t-81.5 269h-2q-13 -57 -175 -583h-87z" />
    <glyph glyph-name="uni0669" unicode="&#x669;" horiz-adv-x="571" 
d="M381 263q-61 -16 -125 -16q-78 0 -128 29t-73 75t-23 101q0 97 67 152.5t187 55.5q39 0 87.5 -6t84.5 -13v-641h-77v263zM381 332v245q-12 4 -42.5 9t-64.5 5q-84 0 -124.5 -35.5t-40.5 -99.5q0 -65 40.5 -102.5t110.5 -37.5q51 0 121 16z" />
    <glyph glyph-name="uni066A" unicode="&#x66a;" 
d="M28 0zM155 -4l205 685l48 -16l-205 -683zM56.5 426.5q-28.5 35.5 -28.5 106.5q0 137 110 137t110 -137q0 -71 -28.5 -106.5t-81.5 -35.5t-81.5 35.5zM176 464.5q12 22.5 12 69.5q0 44 -11.5 64.5t-37.5 20.5t-38 -20.5t-12 -64.5q0 -92 50 -92q25 0 37 22.5zM341.5 26
q-28.5 36 -28.5 106q0 137 110 137q109 0 109 -136q0 -71 -28.5 -107t-81.5 -36q-52 0 -80.5 36zM460.5 63q11.5 22 11.5 68t-11 66.5t-38 20.5t-38.5 -20t-11.5 -65q0 -48 12 -70t38 -22t37.5 22z" />
    <glyph glyph-name="uni066B" unicode="&#x66b;" horiz-adv-x="197" 
d="M80 107h83l-67 -230h-62z" />
    <glyph glyph-name="uni066C" unicode="&#x66c;" horiz-adv-x="151" 
d="M63 72h54l-43 -147h-40z" />
    <glyph glyph-name="uni066D" unicode="&#x66d;" horiz-adv-x="420" 
d="M192 497l-107 -79l-31 40l108 79l-106 77l31 42l106 -78l41 126l49 -16l-40 -127h130v-50h-132l41 -125l-49 -15z" />
    <glyph glyph-name="uni066E" unicode="&#x66e;" horiz-adv-x="765" 
d="M685 500v-500h-372q-96 0 -152 16t-81.5 51t-25.5 96q0 76 31 227l60 -3l-10 -80q-1 -11 -6.5 -55.5t-5.5 -70.5q0 -43 17.5 -67t58 -34.5t113.5 -10.5h296v431h77z" />
    <glyph glyph-name="uni066F" unicode="&#x66f;" horiz-adv-x="857" 
d="M787 489v-526q0 -96 -62 -154t-171 -58h-281q-109 0 -171 58t-62 155q0 73 36 283l73 -12q-17 -109 -24.5 -164t-7.5 -90q0 -75 39.5 -118t119.5 -43h274q81 0 120.5 43t39.5 118v19h-145q-69 0 -107.5 20t-56 70t-17.5 143q0 96 20 153.5t68 85.5t135 28q30 0 76 -2.5
t76 -5.5zM473.5 134q12.5 -36 40.5 -50.5t77 -14.5h119v358q-69 6 -94 6q-60 0 -93.5 -20.5t-47.5 -63t-14 -112.5q0 -67 12.5 -103z" />
    <glyph glyph-name="uni0670" unicode="&#x670;" horiz-adv-x="0" 
d="M-26 855l52 23v-189l-52 -23v189z" />
    <glyph glyph-name="uni0671" unicode="&#x671;" horiz-adv-x="257" 
d="M7 0zM90 632h77v-632h-77v632zM7 727h45q0 26 14.5 50.5t40.5 40.5t59 16q84 0 84 -107v-41h-243v41zM213 727q0 40 -15 55.5t-40 15.5q-32 0 -55.5 -19t-23.5 -52h134z" />
    <glyph glyph-name="uni0679" unicode="&#x679;" horiz-adv-x="765" 
d="M54 0zM685 500v-500h-372q-96 0 -152 16t-81.5 51t-25.5 96q0 76 31 227l60 -3l-10 -80q-1 -11 -6.5 -55.5t-5.5 -70.5q0 -43 17.5 -67t58 -34.5t113.5 -10.5h296v431h77zM465.5 644q21.5 -20 21.5 -63v-81h-208v43h15v186h41v-122q15 28 32.5 42.5t45.5 14.5
q31 0 52.5 -20zM355.5 597q-20.5 -23 -20.5 -49v-5h111v38q0 18 -9.5 28.5t-29.5 10.5q-31 0 -51.5 -23z" />
    <glyph glyph-name="uni067E" unicode="&#x67e;" horiz-adv-x="765" 
d="M54 0zM685 500v-500h-372q-96 0 -152 16t-81.5 51t-25.5 96q0 76 31 227l60 -3l-10 -80q-1 -11 -6.5 -55.5t-5.5 -70.5q0 -43 17.5 -67t58 -34.5t113.5 -10.5h296v431h77zM282 -80h76v-84h-76v84zM407 -80h76v-84h-76v84zM345 -205h75v-81h-75v81z" />
    <glyph glyph-name="uni0686" unicode="&#x686;" horiz-adv-x="574" 
d="M160 -208.5q41 -39.5 126 -39.5l11 -68h-27q-113 0 -171.5 58t-58.5 167q0 200 205 200q94 0 171 -40v271q0 50 -26 75.5t-78 25.5q-45 0 -178 -16l-28 -3l-3 57q151 31 226 31q164 0 164 -171v-339h-77q-28 15 -72 27.5t-88 12.5q-67 0 -102 -32t-35 -103
q0 -74 41 -113.5zM280 -175v95h82v-95h-82zM514 -80v-95h-82v95h82zM359 -210h75v-87h-75v87z" />
    <glyph glyph-name="uni0688" unicode="&#x688;" horiz-adv-x="492" 
d="M40 0zM368.5 442.5q73.5 -78.5 73.5 -255.5v-187h-402v69h325v116q0 148 -57.5 207.5t-134.5 59.5h-81l-5 57q10 4 40.5 8t58.5 4q109 0 182.5 -78.5zM234.5 764q21.5 -20 21.5 -63v-81h-208v43h15v186h41v-122q15 28 32.5 42.5t45.5 14.5q31 0 52.5 -20zM124.5 717
q-20.5 -23 -20.5 -49v-5h111v38q0 18 -9.5 28.5t-29.5 10.5q-31 0 -51.5 -23z" />
    <glyph glyph-name="uni0691" unicode="&#x691;" horiz-adv-x="350" 
d="M40 0zM84.5 -248q-13.5 1 -23.5 2l-21 2v68q50 -4 63 -4q50 0 74.5 39.5t24.5 110.5v529h77v-510q0 -238 -165 -238q-16 0 -29.5 1zM321.5 737q21.5 -20 21.5 -63v-81h-208v43h15v186h41v-122q15 28 32.5 42.5t45.5 14.5q31 0 52.5 -20zM211.5 690q-20.5 -23 -20.5 -49
v-5h111v38q0 18 -9.5 28.5t-29.5 10.5q-31 0 -51.5 -23z" />
    <glyph glyph-name="uni0698" unicode="&#x698;" horiz-adv-x="350" 
d="M40 0zM84.5 -248q-13.5 1 -23.5 2l-21 2v68q50 -4 63 -4q50 0 74.5 39.5t24.5 110.5v529h77v-510q0 -238 -165 -238q-16 0 -29.5 1zM201 799h75v-81h-75v81zM138 677h76v-84h-76v84zM263 677h76v-84h-76v84z" />
    <glyph glyph-name="uni06A1" unicode="&#x6a1;" horiz-adv-x="960" 
d="M900 489v-489h-601q-96 0 -152 16t-81.5 51t-25.5 96q0 41 9.5 105t22.5 122l60 -3q-1 -7 -7 -50q-16 -117 -16 -156q0 -43 17.5 -67t58 -34.5t113.5 -10.5h226q-27 53 -27 169q0 103 21.5 159t72 79t143.5 23q76 0 138 -7zM610 69h213v359q-68 5 -96 5q-63 0 -96 -19
t-45.5 -60t-12.5 -114q0 -127 37 -171z" />
    <glyph glyph-name="uni06A4" unicode="&#x6a4;" horiz-adv-x="960" 
d="M40 0zM900 489v-489h-601q-96 0 -152 16t-81.5 51t-25.5 96q0 41 9.5 105t22.5 122l60 -3q-1 -7 -7 -50q-16 -117 -16 -156q0 -43 17.5 -67t58 -34.5t113.5 -10.5h226q-27 53 -27 169q0 103 21.5 159t72 79t143.5 23q76 0 138 -7zM610 69h213v359q-68 5 -96 5
q-63 0 -96 -19t-45.5 -60t-12.5 -114q0 -127 37 -171zM695 799h75v-81h-75v81zM632 677h76v-84h-76v84zM757 677h76v-84h-76v84z" />
    <glyph glyph-name="uni06A9" unicode="&#x6a9;" horiz-adv-x="798" 
d="M697.5 371q40.5 -61 40.5 -158v-213h-439q-96 0 -152 16t-81.5 51t-25.5 96q0 68 26 198l62 -3q-4 -28 -5 -42q-14 -94 -14 -135q0 -43 17.5 -67t58 -34.5t113.5 -10.5h363v145q0 60 -22.5 104t-74.5 45h-271l-51 69l52 102q18 36 54.5 87.5t73.5 96.5l55 -31
q-46 -69 -69 -106.5t-42 -74.5l-38 -74h242q87 0 127.5 -61z" />
    <glyph glyph-name="uni06AF" unicode="&#x6af;" horiz-adv-x="798" 
d="M40 0zM697.5 371q40.5 -61 40.5 -158v-213h-439q-96 0 -152 16t-81.5 51t-25.5 96q0 68 26 198l62 -3q-4 -28 -5 -42q-14 -94 -14 -135q0 -43 17.5 -67t58 -34.5t113.5 -10.5h363v145q0 60 -22.5 104t-74.5 45h-271l-51 69l52 102q18 36 54.5 87.5t73.5 96.5l55 -31
q-46 -69 -69 -106.5t-42 -74.5l-38 -74h242q87 0 127.5 -61zM186 512l31 61q17 32 54.5 86t73.5 98l45 -25q-37 -44 -80.5 -106t-58.5 -93l-32 -65z" />
    <glyph glyph-name="uni06BA" unicode="&#x6ba;" horiz-adv-x="615" 
d="M170 -221q-60 27 -95 75t-35 110q0 38 12 128t28 181l74 -4q-15 -98 -26 -184.5t-11 -115.5q0 -43 24.5 -77t66.5 -52.5t93 -18.5q74 0 125.5 38.5t51.5 109.5v531h77v-540q0 -67 -34.5 -114t-92 -70.5t-125.5 -23.5q-73 0 -133 27z" />
    <glyph glyph-name="uni06BE" unicode="&#x6be;" horiz-adv-x="740" 
d="M587.5 465q92.5 -78 92.5 -256v-209h-640v69h55v80q0 49 24.5 90.5t66 66t90.5 24.5q48 0 89.5 -23.5t66 -65t24.5 -92.5v-80h147v138q0 148 -74.5 207.5t-188.5 59.5q-44 0 -93.5 -6.5t-118.5 -18.5l-5 59q130 35 231 35q141 0 233.5 -78zM202 231q-30 -30 -30 -73v-89
h207v89q0 43 -29.5 73t-73.5 30t-74 -30z" />
    <glyph glyph-name="uni06C1" unicode="&#x6c1;" horiz-adv-x="555" 
d="M40 0zM379.5 506.5q76.5 -3.5 115.5 -7.5v-499h-219q-89 0 -140 25t-73.5 79.5t-22.5 148.5q0 93 21.5 149t71 82t133.5 26q37 0 113.5 -3.5zM133.5 146q16.5 -40 53.5 -58.5t102 -18.5h129v365q-88 6 -136 6q-91 0 -128 -43t-37 -142q0 -69 16.5 -109z" />
    <glyph glyph-name="uni06C2" unicode="&#x6c2;" horiz-adv-x="555" 
d="M40 0zM379.5 506.5q76.5 -3.5 115.5 -7.5v-499h-219q-89 0 -140 25t-73.5 79.5t-22.5 148.5q0 93 21.5 149t71 82t133.5 26q37 0 113.5 -3.5zM133.5 146q16.5 -40 53.5 -58.5t102 -18.5h129v365q-88 6 -136 6q-91 0 -128 -43t-37 -142q0 -69 16.5 -109zM381 638l-204 -40
l-9 32l48 13q-34 28 -34 71q0 37 26 63.5t67 26.5q23 0 43 -8t30 -16l-10 -38q-6 5 -18.5 10t-27.5 5q-26 0 -42.5 -17t-16.5 -40q0 -29 23 -46l114 30z" />
    <glyph glyph-name="uni06C3" unicode="&#x6c3;" horiz-adv-x="555" 
d="M40 0zM379.5 506.5q76.5 -3.5 115.5 -7.5v-499h-219q-89 0 -140 25t-73.5 79.5t-22.5 148.5q0 93 21.5 149t71 82t133.5 26q37 0 113.5 -3.5zM133.5 146q16.5 -40 53.5 -58.5t102 -18.5h129v365q-88 6 -136 6q-91 0 -128 -43t-37 -142q0 -69 16.5 -109zM178 677h76v-84
h-76v84zM303 677h76v-84h-76v84z" />
    <glyph glyph-name="uni06CC" unicode="&#x6cc;" horiz-adv-x="847" 
d="M40 0zM170 -221q-60 27 -95 75.5t-35 110.5q0 61 26 221l73 -12q-22 -147 -22 -192q0 -47 24.5 -84t66 -57t90.5 -20l264 -1q71 0 109.5 45.5t38.5 115.5q0 39 -14 64t-47 42t-93 30q-82 17 -127.5 39t-66.5 59t-21 99q0 186 223 186q77 0 209 -20l-7 -65
q-144 17 -197 17q-150 0 -150 -113q0 -43 14.5 -65.5t49.5 -36.5t111 -31q71 -16 113 -40.5t61 -62.5t19 -96q0 -107 -57 -171t-164 -64h-263q-73 0 -133 27z" />
    <glyph glyph-name="uni06D2" unicode="&#x6d2;" horiz-adv-x="749" 
d="M699 328v-108q0 -114 -60.5 -167t-182.5 -53h-333q-6 -22 -6 -50q0 -66 46.5 -96t148.5 -30h310v-69h-321q-139 0 -200 45.5t-61 148.5q0 37 7 69.5t15 50.5h392q85 0 127 36t42 114v109h76z" />
    <glyph glyph-name="uni06D3" unicode="&#x6d3;" horiz-adv-x="749" 
d="M40 0zM699 328v-108q0 -114 -60.5 -167t-182.5 -53h-333q-6 -22 -6 -50q0 -66 46.5 -96t148.5 -30h310v-69h-321q-139 0 -200 45.5t-61 148.5q0 37 7 69.5t15 50.5h392q85 0 127 36t42 114v109h76zM262 225l-204 -40l-9 32l48 13q-34 28 -34 71q0 37 26 63.5t67 26.5
q23 0 43 -8t30 -16l-10 -38q-6 5 -18.5 10t-27.5 5q-26 0 -42.5 -17t-16.5 -40q0 -29 23 -46l114 30z" />
    <glyph glyph-name="uni06D4" unicode="&#x6d4;" horiz-adv-x="216" 
d="M67 114h82v-114h-82v114z" />
    <glyph glyph-name="uni06F0" unicode="&#x6f0;" horiz-adv-x="272" 
d="M80 151zM80 290h112v-139h-112v139z" />
    <glyph glyph-name="uni06F1" unicode="&#x6f1;" horiz-adv-x="315" 
d="M119 0zM119 660h77v-660h-77v660z" />
    <glyph glyph-name="uni06F2" unicode="&#x6f2;" horiz-adv-x="517" 
d="M114 0zM114 660h77v-130q0 -69 24 -100.5t78 -31.5q57 0 80 33t23 98v131h77v-134q0 -95 -48.5 -146t-131.5 -51q-73 0 -102 43v-372h-77v660z" />
    <glyph glyph-name="uni06F3" unicode="&#x6f3;" horiz-adv-x="658" 
d="M111 0zM111 660h77v-159q0 -48 15 -75.5t54 -27.5t54.5 27.5t15.5 73.5v161h65v-160q0 -46 15.5 -73.5t54.5 -27.5t53.5 27t14.5 74v160h77v-162q0 -80 -35.5 -124.5t-105.5 -44.5q-38 0 -67 14t-43 42q-13 -29 -36.5 -42.5t-53.5 -13.5q-57 0 -78 43v-372h-77v660z" />
    <glyph glyph-name="uni06F4" unicode="&#x6f4;" horiz-adv-x="597" 
d="M574 601v-75q0 -99 -56 -148t-173 -49q-62 0 -97 10t-55 33v-372h-77v660h77v-130q0 -58 22.5 -88.5t75.5 -39.5q-13 16 -24.5 45t-11.5 64q0 44 23 64.5t78 20.5q33 0 78 -7l-3 -49q-40 4 -64 4q-50 0 -50 -51q0 -25 11 -50t27 -45q81 2 111.5 34.5t30.5 96.5v72h77z
" />
    <glyph glyph-name="uni06F5" unicode="&#x6f5;" horiz-adv-x="606" 
d="M99 45.5q-38 48.5 -38 142.5q0 112 55 209.5t147 148.5l-58 45l-35 28l41 49q334 -184 334 -460q0 -98 -38.5 -154.5t-104.5 -56.5q-39 0 -62 19.5t-39 54.5q-35 -74 -105 -74q-59 0 -97 48.5zM242.5 79q10.5 13 20.5 36q10 22 18 32t22 10t22.5 -10.5t19.5 -32.5
q11 -23 21.5 -35.5t27.5 -12.5q18 0 35 15t28 44.5t11 71.5q0 81 -41.5 163.5t-104.5 141.5q-86 -44 -135 -129t-49 -176q0 -62 22 -96.5t53 -34.5q19 0 29.5 13z" />
    <glyph glyph-name="uni06F6" unicode="&#x6f6;" horiz-adv-x="465" 
d="M209 570q-36 -25 -36 -71q0 -43 29 -75t77 -32h103l-7 -63q-226 -104 -226 -193l-78 -17q0 46 43.5 102.5t157.5 121.5q-53 0 -92.5 23.5t-60.5 61.5t-21 80q0 69 56.5 110.5t157.5 41.5q49 0 83 -9l-7 -63q-51 7 -85 7q-58 0 -94 -25z" />
    <glyph glyph-name="uni06F7" unicode="&#x6f7;" horiz-adv-x="589" 
d="M29 0zM29 652h87q162 -526 175 -583h2q7 31 81.5 269t99.5 314h83l-218 -652h-100z" />
    <glyph glyph-name="uni06F8" unicode="&#x6f8;" horiz-adv-x="589" 
d="M29 0zM239 652h100l218 -652h-83q-25 76 -99.5 314t-81.5 269h-2q-13 -57 -175 -583h-87z" />
    <glyph glyph-name="uni06F9" unicode="&#x6f9;" horiz-adv-x="571" 
d="M32 0zM381 263q-61 -16 -125 -16q-78 0 -128 29t-73 75t-23 101q0 97 67 152.5t187 55.5q39 0 87.5 -6t84.5 -13v-641h-77v263zM381 332v245q-12 4 -42.5 9t-64.5 5q-84 0 -124.5 -35.5t-40.5 -99.5q0 -65 40.5 -102.5t110.5 -37.5q51 0 121 16z" />
    <glyph glyph-name="Wgrave" unicode="&#x1e80;" horiz-adv-x="886" 
d="M30 0zM30 692h80l118 -624h29l141 618h90l141 -618h29l118 624h79l-140 -692h-141l-131 591l-131 -591h-141zM320 865l26 66l216 -100l-23 -53z" />
    <glyph glyph-name="wgrave" unicode="&#x1e81;" horiz-adv-x="762" 
d="M31 0zM31 500h75l101 -435h16l119 425h78l119 -425h17l100 435h75l-119 -500h-125l-106 391l-106 -391h-125zM239 676l26 64l216 -98l-21 -51z" />
    <glyph glyph-name="Wacute" unicode="&#x1e82;" horiz-adv-x="886" 
d="M30 0zM30 692h80l118 -624h29l141 618h90l141 -618h29l118 624h79l-140 -692h-141l-131 591l-131 -591h-141zM332 831l216 100l26 -66l-219 -87z" />
    <glyph glyph-name="wacute" unicode="&#x1e83;" horiz-adv-x="762" 
d="M31 0zM31 500h75l101 -435h16l119 425h78l119 -425h17l100 435h75l-119 -500h-125l-106 391l-106 -391h-125zM277 642l216 98l26 -64l-221 -85z" />
    <glyph glyph-name="Wdieresis" unicode="&#x1e84;" horiz-adv-x="886" 
d="M30 0zM30 692h80l118 -624h29l141 618h90l141 -618h29l118 624h79l-140 -692h-141l-131 591l-131 -591h-141zM304 898h73v-90h-73v90zM508 898h72v-90h-72v90z" />
    <glyph glyph-name="wdieresis" unicode="&#x1e85;" horiz-adv-x="762" 
d="M31 0zM31 500h75l101 -435h16l119 425h78l119 -425h17l100 435h75l-119 -500h-125l-106 391l-106 -391h-125zM246 711h72v-90h-72v90zM446 711h73v-90h-73v90z" />
    <glyph glyph-name="uni1EAB" unicode="&#x1eab;" horiz-adv-x="501" 
d="M40 0zM76 29q-36 39 -36 112q0 72 36.5 107t116.5 43l157 15v43q0 95 -82 95q-81 0 -197 -13l-3 57q107 22 195 22q85 0 123.5 -38.5t38.5 -122.5v-256q3 -37 58 -44l-3 -59q-79 0 -119 40q-89 -40 -180 -40q-69 0 -105 39zM327 76l23 8v165l-148 -14q-45 -4 -65 -26
t-20 -64q0 -92 76 -92q67 0 134 23zM210 702h51l124 -140h-75l-73 87l-75 -87h-75zM227 760q-54 23 -65 23q-23 0 -62 -30l-13 -10l-18 48q49 52 91 52q19 0 73 -23t64 -23q20 0 58 29l13 9l17 -48q-47 -51 -86 -51q-21 0 -72 24z" />
    <glyph glyph-name="uni1EB0" unicode="&#x1eb0;" horiz-adv-x="596" 
d="M24 0zM446 178h-296l-50 -178h-76l190 692h168l190 -692h-76zM167 247h262l-105 379h-52zM184.5 789q-42.5 36 -45.5 95h69q1 -33 26.5 -54t62.5 -21q36 0 61 21t26 54h70q-3 -59 -46 -95t-112 -36t-111.5 36zM120 1016l26 66l216 -100l-23 -53z" />
    <glyph glyph-name="uni1EC5" unicode="&#x1ec5;" horiz-adv-x="505" 
d="M50 0zM97.5 49.5q-47.5 59.5 -47.5 187.5q0 139 51 206t160 67q100 0 149.5 -57.5t49.5 -176.5l-4 -57h-330q0 -62 13.5 -97t46 -50.5t90.5 -15.5q29 0 67 1.5t69 4.5l29 3l2 -59q-111 -16 -184 -16q-114 0 -161.5 59.5zM385 279q0 91 -29 129.5t-95 38.5
q-69 0 -102 -40.5t-34 -127.5h260zM231 702h51l124 -140h-75l-73 87l-75 -87h-75zM251 760q-54 23 -65 23q-23 0 -62 -30l-13 -10l-18 48q49 52 91 52q19 0 73 -23t64 -23q20 0 58 29l13 9l17 -48q-47 -51 -86 -51q-21 0 -72 24z" />
    <glyph glyph-name="uni1ED7" unicode="&#x1ed7;" horiz-adv-x="528" 
d="M50 0zM137 16.5q-47 26.5 -67 82.5t-20 148q0 95 21 152.5t68 84t125 26.5q79 0 125.5 -27t67.5 -84t21 -152q0 -92 -20 -148t-66.5 -82.5t-127.5 -26.5q-80 0 -127 26.5zM349 73.5q29 18.5 40.5 59t11.5 114.5q0 78 -12 120t-41 60t-83 18t-83.5 -18t-42 -60t-12.5 -120
q0 -73 11.5 -114t41 -59.5t85.5 -18.5q55 0 84 18.5zM233 702h51l124 -140h-75l-73 87l-75 -87h-75zM246 760q-54 23 -65 23q-23 0 -62 -30l-13 -10l-18 48q49 52 91 52q19 0 73 -23t64 -23q20 0 58 29l13 9l17 -48q-47 -51 -86 -51q-21 0 -72 24z" />
    <glyph glyph-name="Ygrave" unicode="&#x1ef2;" horiz-adv-x="538" 
d="M10 0zM231 291l-221 401h87l172 -324l172 324h87l-220 -401v-291h-77v291zM140 865l26 66l216 -100l-23 -53z" />
    <glyph glyph-name="ygrave" unicode="&#x1ef3;" horiz-adv-x="483" 
d="M25 0zM241 0h-74l-142 500h75l125 -435h33l126 435h75l-208 -722h-75zM104 676l26 64l216 -98l-21 -51z" />
    <glyph glyph-name="uni1EF8" unicode="&#x1ef8;" horiz-adv-x="531" 
d="M10 0zM262 830q-62 27 -75 27q-22 0 -61 -36l-13 -12l-17 56q21 24 46.5 41t47.5 17t84 -27q61 -27 71 -27q20 0 58 35l12 11l18 -56q-47 -56 -88 -56q-22 0 -83 27zM231 291l-221 401h87l172 -324l172 324h87l-220 -401v-291h-77v291z" />
    <glyph glyph-name="uni1EF9" unicode="&#x1ef9;" horiz-adv-x="483" 
d="M25 0zM236 636q-54 23 -65 23q-23 0 -62 -30l-13 -10l-18 48q49 52 91 52q19 0 73 -23t64 -23q20 0 58 29l13 9l17 -48q-47 -51 -86 -51q-21 0 -72 24zM241 0h-74l-142 500h75l125 -435h33l126 435h75l-208 -722h-75z" />
    <glyph glyph-name="endash" unicode="&#x2013;" horiz-adv-x="631" 
d="M66 301h500v-66h-500v66z" />
    <glyph glyph-name="emdash" unicode="&#x2014;" horiz-adv-x="1131" 
d="M66 301h1000v-66h-1000v66z" />
    <glyph glyph-name="quoteleft" unicode="&#x2018;" horiz-adv-x="219" 
d="M115 708h59l-44 -219h-79z" />
    <glyph glyph-name="quoteright" unicode="&#x2019;" horiz-adv-x="216" 
d="M112 489h-59l44 219h79z" />
    <glyph glyph-name="quotesinglbase" unicode="&#x201a;" horiz-adv-x="218" 
d="M81 22h12l-9 -43h-16z" />
    <glyph glyph-name="quotedblleft" unicode="&#x201c;" horiz-adv-x="373" 
d="M115 708h59l-44 -219h-79zM268 708h59l-44 -219h-79z" />
    <glyph glyph-name="quotedblright" unicode="&#x201d;" horiz-adv-x="377" 
d="M119 490h-59l44 219h79zM272 490h-59l44 219h79z" />
    <glyph glyph-name="quotedblbase" unicode="&#x201e;" horiz-adv-x="359" 
d="M86 112h59l-44 -219h-79zM239 112h59l-44 -219h-79z" />
    <glyph glyph-name="dagger" unicode="&#x2020;" horiz-adv-x="478" 
d="M202 434h-168v66h168v192h74v-192h168v-66h-168l-4 -510h-66z" />
    <glyph glyph-name="daggerdbl" unicode="&#x2021;" horiz-adv-x="521" 
d="M223 116h-168v65h168v253h-168v66h168v192h75v-192h167v-66h-167v-253h168v-65h-168v-192h-75v192z" />
    <glyph glyph-name="bullet" unicode="&#x2022;" horiz-adv-x="473" 
d="M111 392h250v-286h-250v286z" />
    <glyph glyph-name="ellipsis" unicode="&#x2026;" horiz-adv-x="725" 
d="M67 114h82v-114h-82v114zM321 114h82v-114h-82v114zM576 114h82v-114h-82v114z" />
    <glyph glyph-name="perthousand" unicode="&#x2030;" horiz-adv-x="835" 
d="M165 -4l205 685l48 -16l-205 -683zM66.5 426.5q-28.5 35.5 -28.5 105.5q0 138 110 138t110 -138q0 -70 -28.5 -105.5t-81.5 -35.5t-81.5 35.5zM198 532q0 45 -11.5 66t-37.5 21q-27 0 -38.5 -20.5t-11.5 -66.5q0 -90 50 -90q49 0 49 90zM351.5 26q-28.5 36 -28.5 106
q0 137 110 137q109 0 109 -138q0 -69 -29 -105t-81 -36t-80.5 36zM608.5 26q-28.5 36 -28.5 106q0 137 110 137q109 0 109 -138q0 -69 -28.5 -105t-80.5 -36q-53 0 -81.5 36zM470.5 62.5q11.5 21.5 11.5 68.5q0 46 -11 66.5t-38 20.5t-38.5 -20.5t-11.5 -65.5q0 -91 49 -91
q27 0 38.5 21.5zM727.5 62.5q11.5 21.5 11.5 68.5q0 46 -11 66.5t-38 20.5t-38.5 -20.5t-11.5 -65.5q0 -91 50 -91q26 0 37.5 21.5z" />
    <glyph glyph-name="guilsinglleft" unicode="&#x2039;" horiz-adv-x="301" 
d="M45 218v60l189 143v-77l-124 -94l124 -105v-78z" />
    <glyph glyph-name="guilsinglright" unicode="&#x203a;" horiz-adv-x="301" 
d="M67 145l124 105l-124 94v77l189 -143v-60l-189 -151v78z" />
    <glyph glyph-name="fraction" unicode="&#x2044;" horiz-adv-x="0" 
d="M-224 28l392 632l40 -26l-393 -631z" />
    <glyph glyph-name="uni2070" unicode="&#x2070;" horiz-adv-x="280" 
d="M53.5 504q-31.5 36 -31.5 130q0 95 31 130.5t87 35.5t87.5 -35.5t31.5 -130.5q0 -94 -31.5 -130t-87.5 -36q-55 0 -86.5 36zM179 549q14 23 14 85t-14 85t-39 23q-26 0 -39.5 -23t-13.5 -85t14 -85t39 -23t39 23z" />
    <glyph glyph-name="uni2074" unicode="&#x2074;" horiz-adv-x="280" 
d="M165 526h-141v54l69 210h70l-73 -206h75l5 89h58v-89h27v-58h-27v-48h-63v48z" />
    <glyph glyph-name="uni2075" unicode="&#x2075;" horiz-adv-x="280" 
d="M54 480l-16 3l5 52q56 -9 96 -9q47 0 47 48q0 47 -40 47q-27 0 -52 -15l-50 6l10 178h187v-56h-136l-5 -73q30 15 58 15q93 0 93 -98q0 -108 -106 -108q-48 0 -91 10z" />
    </font>
</defs>
</svg>
